Торрент файл
скачать торрент магнет ссылка Добавлен: 15 янв 2012, 23:24
Размер: 2.13 ГБ
Сидеров: 4
Личеров: 7
Автор

СообщениеДобавлено: 15 янв 2012, 23:24 

Не в сети
Супермодератор
Аватара пользователя
Дата регистрации:
11 апр 2010, 18:10
Спасибо: 5801 / 7
Сообщения: 56779
Возвращение в Cалем / A Return to Salem's Lot

Перевод: Авторский (Андрей Дольский), cубтитры: отсутствуют
Формат: DVDRip, MKV, H.264, AC3
Страна: США
Режиссер: Ларри Коэн
Жанр: ужасы
Продолжительность: 01:36:15
Год выпуска: 1987
В ролях: Майкл Мориарти, Рики Эддисон Рид, Сэмюэл Фуллер, Эндрю Дагган, Эвелин Кийес, Джилл Гэтсби, Джун Хэвок, Рони Блейкли, Джеймс Диксон, Дэвид Холбрук
Описание: Антрополог Джо Вебер берёт своего сына в поездку в Салем, город Новой Англии, не зная, что он населён вампирами. Отчаявшиеся жители Салема просят чужака снова обратить их в людей.

Видео: 720x392 (1,85:1), 25,000 fps, MPEG4 AVC (х264), High@L4.1 ~2800 kbps avg, 0.397 bit/pixel
Аудио#1:Русский: 48 kHz,AC-3, 2 ch, ~192.00 kbps avg [Авторский (одноголосый) (Андрей Дольский)]
Аудио#2:Английский: 48 kHz,AC-3, 2 ch, ~192.00 kbps avg [Оригинал]


Автор РИПа:
Сиквел знаменитой экранизации Стивена Кинга - Салемские вампиры(Salem's Lot)

Общее
Уникальный идентификатор : 179944530798491219858042480241710754889 (0x87600E5748C71F138DCA2F99F82C6C49)
Полное имя : f:\Downloads\a_return_to_ralems_lot_[tfile.ru].mkv
Формат : Matroska
Версия формата : Version 2
Размер файла : 2,13 Гбайт
Продолжительность : 1 ч. 36 м.
Общий поток : 3162 Кбит/сек
Дата кодирования : UTC 2011-12-29 18:31:18
Программа кодирования : mkvmerge v4.6.0 ('Still Crazy After All These Years') сборка от Mar 10 2011 02:50:32
Библиотека кодирования : libebml v1.2.0 + libmatroska v1.1.0

Видео
Идентификатор : 1
Формат : AVC
Формат/Информация : Advanced Video Codec
Профиль формата : High@L4.1
Параметр CABAC формата : Да
Параметр ReFrames формата : 3 кадра
Режим смешивания : Header stripping
Идентификатор кодека : V_MPEG4/ISO/AVC
Продолжительность : 1 ч. 36 м.
Битрейт : 2800 Кбит/сек
Ширина : 720 пикселей
Высота : 392 пикселя
Соотношение сторон : 16:9
Соотношение сторон в оригинале : 1,850
Режим частоты кадров : Переменный
Частота кадров : 25,000 кадров/сек
Цветовое пространство : YUV
Субдискретизация насыщенности : 4:2:0
Битовая глубина : 8 бит
Тип развёртки : MBAFF
Бит/(Пиксели*Кадры) : 0.397
Размер потока : 1,83 Гбайт (86%)
Библиотека кодирования : x264 core 116 r2019M 9cc407d
Настройки программы : cabac=1 / ref=3 / deblock=1:-1:-1 / analyse=0x3:0x133 / me=hex / subme=7 / psy=1 / psy_rd=1.00:0.15 / mixed_ref=1 / me_range=16 / chroma_me=1 / trellis=1 / 8x8dct=1 / cqm=0 / deadzone=21,11 / fast_pskip=1 / chroma_qp_offset=-3 / threads=8 / sliced_threads=0 / nr=0 / decimate=1 / interlaced=tff / bluray_compat=0 / constrained_intra=0 / bframes=3 / b_pyramid=1 / b_adapt=2 / b_bias=0 / direct=3 / weightb=1 / open_gop=0 / weightp=0 / keyint=250 / keyint_min=25 / scenecut=40 / intra_refresh=0 / rc_lookahead=40 / rc=abr / mbtree=1 / bitrate=2800 / ratetol=1.0 / qcomp=0.60 / qpmin=10 / qpmax=51 / qpstep=4 / vbv_maxrate=9800 / vbv_bufsize=1835 / nal_hrd=none / ip_ratio=1.40 / aq=1:1.00
Язык : English
Default : Да
Forced : Нет

Аудио #1
Идентификатор : 2
Формат : AC-3
Формат/Информация : Audio Coding 3
Расширение режима : CM (complete main)
Режим смешивания : Header stripping
Идентификатор кодека : A_AC3
Продолжительность : 1 ч. 36 м.
Вид битрейта : Постоянный
Битрейт : 192 Кбит/сек
Каналы : 2 канала
Расположение каналов : Front: L R
Частота : 48,0 КГц
Битовая глубина : 16 бит
Метод сжатия : С потерями
Размер потока : 132 Мбайт (6%)
Заголовок : AVO
Язык : Russian
Default : Да
Forced : Нет

Аудио #2
Идентификатор : 3
Формат : AC-3
Формат/Информация : Audio Coding 3
Расширение режима : CM (complete main)
Режим смешивания : Header stripping
Идентификатор кодека : A_AC3
Продолжительность : 1 ч. 36 м.
Вид битрейта : Постоянный
Битрейт : 192 Кбит/сек
Каналы : 2 канала
Расположение каналов : Front: L R
Частота : 48,0 КГц
Битовая глубина : 16 бит
Метод сжатия : С потерями
Размер потока : 132 Мбайт (6%)
Язык : English
Default : Нет
Forced : Нет


















Поделиться:




реклама партнёра


Вернуться к началу
 Профиль Отправить личное сообщение  
 
   Похожие торренты   Автор   Торрент   Размер 
В этой теме нет новых непрочитанных сообщений. Возвращение в спящий лагерь / Return to Sleepaway Camp [Ужасы, детектив, 2008] DVDRip, Dvo

salma3

22 | 3

746.47 МБ

В этой теме нет новых непрочитанных сообщений. Возвращение живых мертвецов 3 / Return of the Living Dead 3 [ужасы, фантастика, мелодрама, 1993] DVDRip, Mvo

salma3

6 | 6

1.37 ГБ

В этой теме нет новых непрочитанных сообщений. Возвращение-помидоров-убийц / Return of the Killer Tomatoes [ужасы, фантастика, комеди, 1988] DVDRip, Mvo [Лицензия]

salma3

50 | 4

1.46 ГБ

В этой теме нет новых непрочитанных сообщений. Атомная школа: Возвращение / Return to Nuke 'Em High Volume 1 [Ужасы, фантастика, комедия, 2013] DVDRip, Dvo

salma3

39 | 3

1.3 ГБ

В этой теме нет новых непрочитанных сообщений. Слепые мертвецы 2: Возвращение слепых мертвецов / Blind Dead 2: Return of the Evil Dead [Ужасы, 1973] DVDRip, Avo

salma3

0 | 2

1.46 ГБ

В этой теме нет новых непрочитанных сообщений. Возмездие / Возвращение непостижимого / Retribution [ужасы, фантастика, драма, мистика, 1987] DVDRip, Avo

salma3

1 | 2

1.45 ГБ

В этой теме нет новых непрочитанных сообщений. Возвращение в дом ночных призраков / Return to House on Haunted Hill [ужасы, триллер, 2007] BDRip, Avo

salma3

0 | 2

1.45 ГБ


Начать новую тему Ответить на тему  [ 1 сообщение ] 




Для Мосгорсуда, Роскомнадзора и рекламодателей:: mosgorsud-torrent[собачка]yandex.ru