Торрент файл
скачать торрент магнет ссылка Добавлен: 15 янв 2012, 23:23
Размер: 2.15 ГБ
Сидеров: 77
Личеров: 11
Автор

СообщениеДобавлено: 15 янв 2012, 23:23 

Не в сети
Супермодератор
Аватара пользователя
Дата регистрации:
11 апр 2010, 18:10
Спасибо: 5801 / 7
Сообщения: 56779
Чиллерама / Chillerama


Перевод: Любительский (одноголосый),
cубтитры: Английские

Формат: HDRip-AVC, MKV, x264, AC3
Страна: США

Режиссер: Адам Грин, Джо Линч,Адам Рифкин
Жанр: ужасы, комедия

Продолжительность: 01:59:49
Год выпуска: 2011

В ролях: Ричард Риле, Адам Рифкин, Рэй Уайз, Сара Мутч, Эрик Робертс, Оуэн Бенжамин, Джоэль Мур, Кристина Клебе, Кэйн Ходдер, Лин Шэй

Описание: Чиллерама- это фильм о золотой эре ужасов, класса В, прошлого столетия и пародирует фильмы, выпущенное в течение 40 лет, взяв от каждого самое дурное и идиотское.



Видео: 1024x576, 23.976 fps, x264 High@L4.1, ~2183 kbps avg, 0.154 bit/pixel
Аудио#1: Русский:48 kHz, AC-3, 2/0 (L, R) ch, ~192 kbps avg [Любительский(одноголосый)]
Аудио#2: Английский:48 kHz, AC-3, 2/0 (L, R) ch, ~192 kbps avg [Оригинал]

ТРЕЙЛЕР

Видео
Идентификатор: 1
Формат: AVC
Формат/Информация: Advanced Video Codec
Профиль формата: High@L4.1
Параметр CABAC формата: Да
Параметр ReFrames формата: 10 кадры
Идентификатор кодека: V_MPEG4/ISO/AVC
Продолжительность: 1 ч. 59 м.
Битрейт: 2183 Кбит/сек
Ширина: 1024 пикс.
Высота: 576 пикс.
Соотношение сторон: 16:9
Частота кадров: 23,976 кадр/сек
Цветовое пространство: YUV
Подвыборка цветности: 4:2:0
Битовая глубина: 8 бит
Тип развёртки: Прогрессивная
Бит/(Пиксели*Кадры): 0.154
Размер потока: 1,79 Гбайт (83%)
Библиотека кодирования: x264 core 116 r2074 2641b9e
Настройки программы: cabac=1 / ref=10 / deblock=1:-2:-1 / analyse=0x3:0x113 / me=umh / subme=10 / psy=1 / psy_rd=1.00:0.20 / mixed_ref=1 / me_range=32 / chroma_me=1 / trellis=2 / 8x8dct=1 / cqm=0 / deadzone=21,11 / fast_pskip=0 / chroma_qp_offset=-3 / threads=12 / sliced_threads=0 / nr=0 / decimate=1 / interlaced=0 / bluray_compat=0 / constrained_intra=0 / bframes=9 / b_pyramid=2 / b_adapt=2 / b_bias=0 / direct=3 / weightb=1 / open_gop=0 / weightp=2 / keyint=250 / keyint_min=23 / scenecut=40 / intra_refresh=0 / rc_lookahead=50 / rc=2pass / mbtree=1 / bitrate=2183 / ratetol=1.0 / qcomp=0.60 / qpmin=0 / qpmax=69 / qpstep=4 / cplxblur=20.0 / qblur=0.5 / ip_ratio=1.40 / aq=1:1.00
Язык: English

Аудио #1
Идентификатор: 2
Формат: AC-3
Формат/Информация: Audio Coding 3
Расширение режима: CM (complete main)
Идентификатор кодека: A_AC3
Продолжительность: 1 ч. 59 м.
Вид битрейта: Постоянный
Битрейт: 192 Кбит/сек
Канал(ы): 2 канала(ов)
Расположение каналов: Front: L R
Частота: 48,0 КГц
Битовая глубина: 16 бит
Метод сжатия: С потерями
Размер потока: 165 Мбайт (7%)
Заголовок: |den904 по субтитрам Mikhail|
Язык: Russian

Аудио #2
Идентификатор: 3
Формат: AC-3
Формат/Информация: Audio Coding 3
Расширение режима: CM (complete main)
Идентификатор кодека: A_AC3
Продолжительность: 1 ч. 59 м.
Вид битрейта: Постоянный
Битрейт: 192 Кбит/сек
Канал(ы): 2 канала(ов)
Расположение каналов: Front: L R
Частота: 48,0 КГц
Битовая глубина: 16 бит
Метод сжатия: С потерями
Размер потока: 165 Мбайт (7%)
Язык: English

Текст
Идентификатор: 4
Формат: UTF-8
Идентификатор кодека: S_TEXT/UTF8
Идентификатор кодека/Информация: UTF-8 Plain Text
Язык: English













Поделиться:




реклама партнёра


Вернуться к началу
 Профиль Отправить личное сообщение  
 
   Похожие торренты   Автор   Торрент   Размер 
В этой теме нет новых непрочитанных сообщений. Неизвестная ненависть / Some Kind of Hate (Адам Египет Мортимер) [Ужасы, 2015] HDRip, avo

Dracon

1945 | 153

1.37 ГБ

В этой теме нет новых непрочитанных сообщений. Демоны Деборы Логан / The Taking (Адам Робител) [Ужасы, триллер, 2014] HDRip, Dub [Лицензия]

Dracon

268 | 8

1.45 ГБ

В этой теме нет новых непрочитанных сообщений. Город монстров / Tales of Halloween (Даррен Линн Боусман, Аксель Кэролин, Адам Гираш) [ужасы, 2015] HDRip, dub [Чистый звук]

Dracon

9069 | 664

1.45 ГБ

В этой теме нет новых непрочитанных сообщений. Глушь / Backcountry (Адам МакДональд) [ужасы, триллер, драма, 2014] WEB-DL 720p, dvo

Dracon

215 | 11

3.01 ГБ

В этой теме нет новых непрочитанных сообщений. Глушь / Backcountry (Адам МакДональд) [ужасы, триллер, драма, 2014] WEB-DLRip, dvo

Dracon

352 | 8

1.37 ГБ

В этой теме нет новых непрочитанных сообщений. Одержимость / The Taking (Адам Робител) [2014, Ужасы, Триллер, BDRip 720p] Dub [Лицензия]

Nickolas3435

31 | 3

4.65 ГБ

В этой теме нет новых непрочитанных сообщений. Экспедиция / Extinction (Адам Спинкс) [приключения, 2015] HDRip [ColdFilm]

Dracon

3 | 0

1.36 ГБ


Начать новую тему Ответить на тему  [ 1 сообщение ] 




Для Мосгорсуда, Роскомнадзора и рекламодателей:: mosgorsud-torrent[собачка]yandex.ru