Торрент файл
скачать торрент магнет ссылка Добавлен: 15 янв 2012, 23:22
Размер: 1.45 ГБ
Сидеров: 88
Личеров: 16
Автор

СообщениеДобавлено: 15 янв 2012, 23:22 

Не в сети
Супермодератор
Аватара пользователя
Дата регистрации:
11 апр 2010, 18:10
Спасибо: 5801 / 7
Сообщения: 56779
[b]Не вижу зла / See No Evil[/b]


Перевод: Профессиональный (полное дублирование)
Субтитры: отсутствуют
Формат: HDRip-AVC, MKV, H.264, AC3

Страна:США

Режиссер: Грегори Дарк
Жанр: ужасы, триллер
Продолжительность: 01:24:00
Год выпуска: 2006

В ролях: Глен Джейкобс, Кристина Видал, Майкл Дж. Паган, Саманта Ноубл, Стивен Видлер, Сесиль Полсон, Люк Пеглер.

Описание: В заброшенном, обветшалом отеле обитает психопат-отшельник Джекоб Гуднайт, в череп которого вставлена стальная пластина. Этот двухметровый верзила весом 180 кг вырывает глаза своим жертвам острыми, как бритва, ногтями…

Однажды в жилище Джекоба вторгаются восемь юных правонарушителей, отправленных приводить в порядок эту богом забытую гостиницу; за ними присматривает полицейский, который четыре года назад пустил Джекобу пулю в лоб. Когда же маньяк похищает девушку, входившую в состав группы, и ее жизнь оказывается под угрозой, остальным ребятам приходится приложить все свои силы для борьбы с неуязвимым злодеем…




Видео: 944x528 (16/9), 23/976 fps, AVC MPEG-4 High@L4.1 ~1662 kbps avg, 0.139 bit/pixel
Аудио #1: русский48 kHz, AC3 Dolby Digital, 3/2 (L,C,R,l,r) + LFE ch, ~384 kbps avg [Профессиональный (полное дублирование)]
Аудио #2: английский48 kHz, AC3 Dolby Digital, 3/2 (L,C,R,l,r) + LFE ch, ~384 kbps avg [оригинал]

Рип от:


General
Unique ID: 193243184871573907228778709660681727646 (0x9161489BEDE679A6A45841630F096E9E)
Complete name: F:\Кривые рипы от дяди Васи\Ne.vizhu.zla.2006.D.HDRip.mkv
Format: Matroska
Format version: Version 2
File size: 1.45 GiB
Duration: 1h 24mn
Overall bit rate: 2 479 Kbps
Encoded date: UTC 2012-01-09 19:40:25
Writing application: mkvmerge v2.9.8 ('C'est le bon') built on Aug 13 2009 12:49:06
Writing library: libebml v0.7.7 + libmatroska v0.8.1

Video
ID: 1
Format: AVC
Format/Info: Advanced Video Codec
Format profile: High@L4.1
Format settings, CABAC: Yes
Format settings, ReFrames: 8 frames
Codec ID: V_MPEG4/ISO/AVC
Duration: 1h 24mn
Bit rate: 1 662 Kbps
Nominal bit rate: 1 753 Kbps
Width: 944 pixels
Height: 528 pixels
Display aspect ratio: 16:9
Frame rate: 23.976 fps
Color space: YUV
Chroma subsampling: 4:2:0
Bit depth: 8 bits
Scan type: Progressive
Bits/(Pixel*Frame): 0.139
Stream size: 999 MiB (67%)
Writing library: x264 core 119 r2106 07efeb4
Encoding settings: cabac=1 / ref=8 / deblock=1:-2:-1 / analyse=0x3:0x111 / me=umh / subme=0 / psy=1 / psy_rd=1.00:0.10 / mixed_ref=1 / me_range=16 / chroma_me=1 / trellis=2 / 8x8dct=1 / cqm=0 / deadzone=21,11 / fast_pskip=0 / chroma_qp_offset=-1 / threads=6 / sliced_threads=0 / nr=0 / decimate=1 / interlaced=0 / bluray_compat=0 / constrained_intra=0 / bframes=3 / b_pyramid=2 / b_adapt=2 / b_bias=0 / direct=1 / weightb=1 / open_gop=0 / weightp=2 / keyint=250 / keyint_min=23 / scenecut=40 / intra_refresh=0 / rc_lookahead=40 / rc=abr / mbtree=1 / bitrate=1753 / ratetol=1.0 / qcomp=0.60 / qpmin=0 / qpmax=69 / qpstep=4 / ip_ratio=1.40 / aq=1:1.00
Language: English
Default: Yes
Forced: No
Color primaries: BT.709-5, BT.1361, IEC 61966-2-4, SMPTE RP177
Transfer characteristics: BT.709-5, BT.1361
Matrix coefficients: BT.709-5, BT.1361, IEC 61966-2-4 709, SMPTE RP177

Audio #1
ID: 2
Format: AC-3
Format/Info: Audio Coding 3
Mode extension: CM (complete main)
Codec ID: A_AC3
Duration: 1h 24mn
Bit rate mode: Constant
Bit rate: 384 Kbps
Channel(s): 6 channels
Channel positions: Front: L C R, Side: L R, LFE
Sampling rate: 48.0 KHz
Bit depth: 16 bits
Compression mode: Lossy
Stream size: 231 MiB (15%)
Title: дубляж
Language: Russian
Default: Yes
Forced: No

Audio #2
ID: 3
Format: AC-3
Format/Info: Audio Coding 3
Mode extension: CM (complete main)
Codec ID: A_AC3
Duration: 1h 24mn
Bit rate mode: Constant
Bit rate: 384 Kbps
Channel(s): 6 channels
Channel positions: Front: L C R, Side: L R, LFE
Sampling rate: 48.0 KHz
Bit depth: 16 bits
Compression mode: Lossy
Stream size: 231 MiB (15%)
Title: оригинал
Language: English
Default: No
Forced: No








Поделиться:




реклама партнёра


Вернуться к началу
 Профиль Отправить личное сообщение  
 
   Похожие торренты   Автор   Торрент   Размер 
В этой теме нет новых непрочитанных сообщений. Не вижу зла / See No Evil [ужасы, триллер, 2006] BDRemux 1080p, Dub

salma3

24 | 5

19.8 ГБ

В этой теме нет новых непрочитанных сообщений. Не вижу зла / See No Evil [ужасы, триллер, 2006] BDRip, Dub [Лицензия]

salma3

21 | 2

1.45 ГБ

В этой теме нет новых непрочитанных сообщений. Не вижу зла 2 / See No Evil 2 [Ужасы, 2014] HDRip, mvo

Dracon

2247 | 73

1.44 ГБ

В этой теме нет новых непрочитанных сообщений. Я вижу, я вижу / Ich seh, Ich seh (Северин Фиала, Вероника Франц) [Ужасы, фэнтези, триллер, драма, 2014] DVDRip-AVC, avo

Dracon

1569 | 48

1.03 ГБ

В этой теме нет новых непрочитанных сообщений. Не вижу зла 2 / See No Evil 2 [Ужасы, 2014] BDRip 1080p, mvo

Dracon

142 | 20

9.58 ГБ

В этой теме нет новых непрочитанных сообщений. Не вижу зла 2 / See No Evil 2 [Ужасы, 2014] BDRip 720p, mvo

Dracon

297 | 17

4.7 ГБ

В этой теме нет новых непрочитанных сообщений. Ничего не вижу, ничего не слышу / See No Evil, Hear No Evil [боевик, триллер, комедия, криминал, 1989] BDRip 1080p, Mvo+Avo+Sub

salma3

26 | 7

7.76 ГБ


Начать новую тему Ответить на тему  [ 1 сообщение ] 




Для Мосгорсуда, Роскомнадзора и рекламодателей:: mosgorsud-torrent[собачка]yandex.ru