Торрент файл
скачать торрент магнет ссылка Добавлен: 15 янв 2012, 23:22
Размер: 1.48 ГБ
Сидеров: 511
Личеров: 26
Автор

СообщениеДобавлено: 15 янв 2012, 23:22 

Не в сети
Супермодератор
Аватара пользователя
Дата регистрации:
11 апр 2010, 18:10
Спасибо: 5802 / 7
Сообщения: 56779
[b]Убежище / Shelter[/b]


Перевод: Профессиональный (полное дублирование)
Субтитры: отсутствуют
Формат: HDRip-AVC, MKV, H.264, AC3

Страна:США

Режиссер: Манс Марлинд, Бьёрн Стейн
Жанр: ужасы, триллер, детектив
Продолжительность: 01:52:39
Год выпуска: 2010

В ролях: Джулианна Мур, Джонатан Рис-Майерс, Джеффри ДеМун, Фрэнсис Конрой, Бруклин Пру, Натан Кордри, КатиАна Дэвис, Майкл Грейвз.

Описание: Мать-одиночка и практикующий психиатр Кара Хардинг ведет тему разоблачения идеи о синдроме раздвоения личности. Но однажды она сталкивается с пациентом, чья болезнь не поддается рациональному объяснению: под личиной обычного человека живет демон, который крадет души мертвых…



Видео: 960x408 (2.35:1), 23.976 fps, AVC MPEG-4 High@L4.1 ~1319 kbps avg, 0.140 bit/pixel
Аудио #1: русский48 kHz, AC3 Dolby Digital, 3/2 (L,C,R,l,r) + LFE ch, ~384 kbps avg [Профессиональный (полное дублирование)]
Аудио #2: английский48 kHz, AC3 Dolby Digital, 2/0 (L, R) ch, ~192 kbps avg [оригинал]

Рип от:


General
Unique ID: 199716527741137565871850450462980721852 (0x9640010DC895EA9198EF713BFE644CBC)
Complete name: F:\Кривые рипы от дяди Васи\Shelter.2010.D.HDRip.mkv
Format: Matroska
Format version: Version 2
File size: 1.48 GiB
Duration: 1h 52mn
Overall bit rate: 1 876 Kbps
Encoded date: UTC 2012-01-09 22:10:06
Writing application: mkvmerge v2.9.8 ('C'est le bon') built on Aug 13 2009 12:49:06
Writing library: libebml v0.7.7 + libmatroska v0.8.1

Video
ID: 1
Format: AVC
Format/Info: Advanced Video Codec
Format profile: High@L4.1
Format settings, CABAC: Yes
Format settings, ReFrames: 8 frames
Codec ID: V_MPEG4/ISO/AVC
Duration: 1h 52mn
Bit rate: 1 319 Kbps
Width: 960 pixels
Height: 408 pixels
Display aspect ratio: 2.35:1
Frame rate: 23.976 fps
Color space: YUV
Chroma subsampling: 4:2:0
Bit depth: 8 bits
Scan type: Progressive
Bits/(Pixel*Frame): 0.140
Stream size: 1 017 MiB (67%)
Writing library: x264 core 119 r2106 07efeb4
Encoding settings: cabac=1 / ref=8 / deblock=1:-2:-2 / analyse=0x3:0x111 / me=umh / subme=0 / psy=1 / psy_rd=1.00:0.10 / mixed_ref=1 / me_range=16 / chroma_me=1 / trellis=2 / 8x8dct=1 / cqm=0 / deadzone=21,11 / fast_pskip=0 / chroma_qp_offset=-1 / threads=6 / sliced_threads=0 / nr=0 / decimate=1 / interlaced=0 / bluray_compat=0 / constrained_intra=0 / bframes=3 / b_pyramid=2 / b_adapt=2 / b_bias=0 / direct=1 / weightb=1 / open_gop=0 / weightp=2 / keyint=250 / keyint_min=23 / scenecut=40 / intra_refresh=0 / rc_lookahead=40 / rc=abr / mbtree=1 / bitrate=1319 / ratetol=1.0 / qcomp=0.60 / qpmin=0 / qpmax=69 / qpstep=4 / ip_ratio=1.40 / aq=1:1.00
Language: English
Default: Yes
Forced: No
Color primaries: BT.709-5, BT.1361, IEC 61966-2-4, SMPTE RP177
Transfer characteristics: BT.709-5, BT.1361
Matrix coefficients: BT.709-5, BT.1361, IEC 61966-2-4 709, SMPTE RP177

Audio #1
ID: 2
Format: AC-3
Format/Info: Audio Coding 3
Mode extension: CM (complete main)
Codec ID: A_AC3
Duration: 1h 52mn
Bit rate mode: Constant
Bit rate: 384 Kbps
Channel(s): 6 channels
Channel positions: Front: L C R, Side: L R, LFE
Sampling rate: 48.0 KHz
Bit depth: 16 bits
Compression mode: Lossy
Stream size: 309 MiB (20%)
Title: дубляж
Language: Russian
Default: Yes
Forced: No

Audio #2
ID: 3
Format: AC-3
Format/Info: Audio Coding 3
Mode extension: CM (complete main)
Codec ID: A_AC3
Duration: 1h 52mn
Bit rate mode: Constant
Bit rate: 192 Kbps
Channel(s): 2 channels
Channel positions: Front: L R
Sampling rate: 48.0 KHz
Bit depth: 16 bits
Compression mode: Lossy
Stream size: 155 MiB (10%)
Title: оригинал
Language: English
Default: No
Forced: No








Поделиться:




реклама партнёра


Вернуться к началу
 Профиль Отправить личное сообщение  
 
   Похожие торренты   Автор   Торрент   Размер 
В этой теме нет новых непрочитанных сообщений. Подари мне убежище / Gimme Shelter [драма, 2013] HDRip, Mvo [iTunes]

Dracon

176 | 8

1.46 ГБ

В этой теме нет новых непрочитанных сообщений. Подари мне убежище / Gimme Shelter [драма, 2013] WEB-DLRip 720p, Mvo [iTunes]

Dracon

0 | 2

3.29 ГБ

В этой теме нет новых непрочитанных сообщений. Остывший след / Cold trail (Бьёрн Бьёрнссон / Björn Brynjúlfur Björnsson) [2006г., Исландия, Дания, детектив, триллер, криминал, DVDRip-AVC] VO + Sub

Alfredovich

11 | 4

2.03 ГБ

В этой теме нет новых непрочитанных сообщений. Убежище / Hideaway [ужасы, фэнтези, триллер, 1995] DVDRip, Mvo

salma3

33 | 3

1.37 ГБ

В этой теме нет новых непрочитанных сообщений. Убежище / Hideaway [Триллер, Ужасы, 1995] WEB-DLRip 720p, Mvo+Sub

salma3

36 | 2

3.21 ГБ

В этой теме нет новых непрочитанных сообщений. Укрытие / Shelter [триллер, драма, фентези, 2015] WEB-DLRip, Dvo

salma3

372 | 18

1.36 ГБ

В этой теме нет новых непрочитанных сообщений. Владение 18 [ужасы, детектив, триллер, 2013] HDRip [лицензия]

Dracon

3 | 2

1.46 ГБ


Начать новую тему Ответить на тему  [ 1 сообщение ] 




Для Мосгорсуда, Роскомнадзора и рекламодателей:: mosgorsud-torrent[собачка]yandex.ru