Торрент файл
скачать торрент магнет ссылка Добавлен: 15 янв 2012, 23:22
Размер: 2.11 ГБ
Сидеров: 88
Личеров: 15
Автор

СообщениеДобавлено: 15 янв 2012, 23:22 

Не в сети
Супермодератор
Аватара пользователя
Дата регистрации:
11 апр 2010, 18:10
Спасибо: 5953 / 7
Сообщения: 56776
Сумеречная зона / Twilight Zone: The Movie

Перевод: Профессиональный (многоголосый, закадровый), cубтитры: Английские (полные, отключаемые)
Формат: HDRip, MKV, H.264, AC3
Страна: США
Режиссер: Джон Лэндис, Стивен Спилберг, Джо Данте, Джордж Миллер
Жанр: ужасы, фантастика, фэнтези, мистика
Продолжительность: 01:41:16
Год выпуска: 1983
В ролях: Дэн Эйкройд, Альберт Брукс, Вик Морроу, Даг МакГрат, Чарльз Хэллахан, Кай Вулфф, Сью Дуган, Дебби Портер, Стивен Уильямс
Описание: Каждый из постановщиков снял свой сегмент для этой ленты. Лэндис предлагает страшноватый пролог и первую новеллу о злобном расисте, которого наказали самым кошмарным образом, который только можно себе вообразить.
Спилберг расскажет о невероятных чудесах омоложения, которые происходят под покровом ночи в доме для престарелых. У Данте припасена поразительная история о странном мальчике со сверхъестественными способностями.
Ну а Миллер-завершит фильм своим леденящим душу финалом!


Видео: 1280x720 (16:9), 23,976 fps, MPEG4 AVC (х264), High@L4.1 ~2800 kbps avg, 0.127 bit/pixel
Аудио: 48 kHz,AC-3, 2 ch, ~192.00 kbps avg


Автор РИПа:
Актер Вик Морроу погиб на съемках фильма из-за того, что вращающиеся вертолетные лопасти, которые во время выполнения взрыва-спецэффекта вышли из-под контроля технического персонала, на полной скорости отрезали ему голову.
Во время этого прискорбного эпизода погибли так же двое актеров-детей - Мик Дин Ли (7 лет) и Рене Чен (6 лет). Это событие стало катализатором для пересмотра и изменения законодательства США в сфере детского труда и мер безопасности, применяемых на съемочных площадках.
В начальной заставке, когда речь идет о другом измерении звука, зрения и фантазии, в большом глазе можно увидеть изображение Рода Стерлинга - создателя оригинального сериала.

Общее
Уникальный идентификатор : 210029700310190902400358657791401519448 (0x9E023FB828F0898C8C53AF27CE69E95
Полное имя : f:\Downloads\twilight zone_the_movie_[tfile.ru].mkv
Формат : Matroska
Версия формата : Version 2
Размер файла : 2,11 Гбайт
Продолжительность : 1 ч. 41 м.
Общий поток : 2987 Кбит/сек
Дата кодирования : UTC 2012-01-10 12:55:36
Программа кодирования : mkvmerge v4.6.0 ('Still Crazy After All These Years') сборка от Mar 10 2011 02:50:32
Библиотека кодирования : libebml v1.2.0 + libmatroska v1.1.0

Видео
Идентификатор : 1
Формат : AVC
Формат/Информация : Advanced Video Codec
Профиль формата : High@L4.1
Параметр CABAC формата : Да
Параметр ReFrames формата : 3 кадра
Режим смешивания : Header stripping
Идентификатор кодека : V_MPEG4/ISO/AVC
Продолжительность : 1 ч. 41 м.
Битрейт : 2800 Кбит/сек
Ширина : 1280 пикселей
Высота : 720 пикселей
Соотношение сторон : 16:9
Режим частоты кадров : Переменный
Частота кадров : 23,976 кадра/сек
Цветовое пространство : YUV
Субдискретизация насыщенности : 4:2:0
Битовая глубина : 8 бит
Тип развёртки : Прогрессивная
Бит/(Пиксели*Кадры) : 0.127
Размер потока : 1,94 Гбайт (92%)
Библиотека кодирования : x264 core 116 r2019M 9cc407d
Настройки программы : cabac=1 / ref=3 / deblock=1:-1:-1 / analyse=0x3:0x133 / me=hex / subme=7 / psy=1 / psy_rd=1.00:0.15 / mixed_ref=1 / me_range=16 / chroma_me=1 / trellis=1 / 8x8dct=1 / cqm=0 / deadzone=21,11 / fast_pskip=1 / chroma_qp_offset=-3 / threads=8 / sliced_threads=0 / nr=0 / decimate=1 / interlaced=0 / bluray_compat=0 / constrained_intra=0 / bframes=3 / b_pyramid=1 / b_adapt=2 / b_bias=0 / direct=3 / weightb=1 / open_gop=0 / weightp=2 / keyint=230 / keyint_min=23 / scenecut=40 / intra_refresh=0 / rc_lookahead=40 / rc=abr / mbtree=1 / bitrate=2800 / ratetol=1.0 / qcomp=0.60 / qpmin=10 / qpmax=51 / qpstep=4 / vbv_maxrate=31250 / vbv_bufsize=31250 / nal_hrd=none / ip_ratio=1.40 / aq=1:1.00
Язык : English
Default : Да
Forced : Нет

Аудио
Идентификатор : 2
Формат : AC-3
Формат/Информация : Audio Coding 3
Расширение режима : CM (complete main)
Режим смешивания : Header stripping
Идентификатор кодека : A_AC3
Продолжительность : 1 ч. 41 м.
Вид битрейта : Постоянный
Битрейт : 192 Кбит/сек
Каналы : 2 канала
Расположение каналов : Front: L R
Частота : 48,0 КГц
Битовая глубина : 16 бит
Метод сжатия : С потерями
Размер потока : 139 Мбайт (6%)
Заголовок : MVO
Язык : Russian
Default : Да
Forced : Нет

Текст
Идентификатор : 3
Формат : UTF-8
Идентификатор кодека : S_TEXT/UTF8
Идентификатор кодека/Информация : UTF-8 Plain Text
Язык : English
Default : Нет
Forced : Нет

Меню
00:00:00.000 : en:00:00:00.000
00:05:32.165 : en:00:05:32.165
00:08:07.487 : en:00:08:07.487
00:12:33.252 : en:00:12:33.252
00:18:45.624 : en:00:18:45.624
00:21:05.764 : en:00:21:05.764
00:24:05.444 : en:00:24:05.444
00:26:38.597 : en:00:26:38.597
00:29:23.095 : en:00:29:23.095
00:35:54.486 : en:00:35:54.486
00:39:35.540 : en:00:39:35.540
00:42:30.214 : en:00:42:30.214
00:47:34.685 : en:00:47:34.685
00:50:01.999 : en:00:50:01.999
00:54:30.267 : en:00:54:30.267
00:58:11.154 : en:00:58:11.154
01:01:12.669 : en:01:01:12.669
01:03:48.158 : en:01:03:48.158
01:07:18.201 : en:01:07:18.201
01:09:43.179 : en:01:09:43.179
01:13:43.419 : en:01:13:43.419
01:17:59.174 : en:01:17:59.174
01:23:46.688 : en:01:23:46.688
01:26:44.366 : en:01:26:44.366
01:31:04.125 : en:01:31:04.125
01:33:16.257 : en:01:33:16.257
01:35:26.888 : en:01:35:26.888












Поделиться:




реклама партнёра


Вернуться к началу
 Профиль Отправить личное сообщение  
 
   Похожие торренты   Автор   Торрент   Размер 
В этой теме нет новых непрочитанных сообщений. Сумеречная зона: Фильм / Twilight Zone: The Movie [ужасы, фантастика, фэнтези, 1983] BDRip-AVC, Mvo

salma3

47 | 3

2.18 ГБ

В этой теме нет новых непрочитанных сообщений. Мертвая зона / The Dead Zone [ужасы, триллер, драма, детектив, 1983] BDRip, Mvo [ТВ3]

salma3

43 | 8

1.46 ГБ

В этой теме нет новых непрочитанных сообщений. Мертвая Зона / The Dead Zone [Драма, фэнтези, триллер, экранизация, 1983] BDRemux, Mvo+Dvo+4Avo+Sub

salma3

3 | 7

18.57 ГБ

В этой теме нет новых непрочитанных сообщений. Мертвая Зона / The Dead Zone [Драма, фэнтези, триллер, экранизация, 1983] BDRip 720p, Mvo+Dvo+4Avo+Sub

salma3

61 | 4

7.94 ГБ

В этой теме нет новых непрочитанных сообщений. Мёртвая зона / The Dead Zone [ужасы, триллер, драма, детектив, 1983] BDRip 1080p, Mvo+Dvo+4Avo+Sub

salma3

8 | 3

13.83 ГБ

В этой теме нет новых непрочитанных сообщений. Зона мертвых / Zone of the Dead [ужасы, боевик, 2009] HDRip-AVC, Mvo

salma3

0 | 11

745.88 МБ

В этой теме нет новых непрочитанных сообщений. Мёртвая зона / The Dead Zone [S01-06] [фантастика, фэнтези, драма, 2002–2007] DVDRip, Mvo

salma3

34 | 31

50.48 ГБ


Начать новую тему Ответить на тему  [ 1 сообщение ] 




Для Мосгорсуда, Роскомнадзора и рекламодателей:: mosgorsud-torrent[собачка]yandex.ru