Торрент файл
скачать торрент магнет ссылка Добавлен: 15 янв 2012, 23:22
Размер: 2.1 ГБ
Сидеров: 56
Личеров: 9
Автор

СообщениеДобавлено: 15 янв 2012, 23:22 

Не в сети
Супермодератор
Аватара пользователя
Дата регистрации:
11 апр 2010, 18:10
Спасибо: 5802 / 7
Сообщения: 56779
Верхом на пуле / Riding the Bullet

Перевод: Профессиональный (многоголосый, закадровый), cубтитры: Русские (полные, отключаемые)
Формат: HDTVRip, MKV, H.264, AC3
Страна: США, Германия, Канада
Режиссер: Мик Гэррис
Жанр: ужасы, триллер
Продолжительность: 01:34:51
Год выпуска: 2004
В ролях: Джонатан Джексон, Дэвид Аркетт, Клифф Робертсон, Барбара Херши, Эрика Кристенсен, Бэрри В. Леви, Джеффри Баллард, Питер ЛаКруа, Крис Готье
Описание: Чтобы скорее навестить свою мать в больнице, Алан решает добираться автостопом, надеясь, что на глухих проселочных дорогах ему повезет с попутчиками. Для парня с богатым воображением путь навстречу неизвестности может стать захватывающим приключением, но Алан одержим смертью, и в эту ночь она станет его невидимым спутником.
Только она будет решать, кто повстречается Алану на полуночном шоссе, где царит зловещая тишина и кажется, что блестящая гладь асфальта ведет прямиком в ад…


Видео: 1280x696 (16:9), 25,000 fps, MPEG4 AVC (х264), High@L4.1 ~2800 kbps avg, 0.126 bit/pixel
Аудио: 48 kHz,AC-3, 6 ch, ~384.00 kbps avg


Автор РИПа:
Фильм снят по произведению Стивена Кинга

Общее
Уникальный идентификатор : 236049907054587232286529071444669687857 (0xB1958EF5B3E2B72887542A079E0EE831)
Полное имя : f:\Downloads\riding_the_bullet_[tfile.ru].mkv
Формат : Matroska
Версия формата : Version 2
Размер файла : 2,10 Гбайт
Продолжительность : 1 ч. 34 м.
Общий поток : 3168 Кбит/сек
Дата кодирования : UTC 2012-01-11 00:34:08
Программа кодирования : mkvmerge v4.6.0 ('Still Crazy After All These Years') сборка от Mar 10 2011 02:50:32
Библиотека кодирования : libebml v1.2.0 + libmatroska v1.1.0

Видео
Идентификатор : 1
Формат : AVC
Формат/Информация : Advanced Video Codec
Профиль формата : High@L4.1
Параметр CABAC формата : Да
Параметр ReFrames формата : 3 кадра
Режим смешивания : Header stripping
Идентификатор кодека : V_MPEG4/ISO/AVC
Продолжительность : 1 ч. 34 м.
Битрейт : 2800 Кбит/сек
Ширина : 1280 пикселей
Высота : 696 пикселей
Соотношение сторон : 16:9
Режим частоты кадров : Переменный
Частота кадров : 25,000 кадров/сек
Цветовое пространство : YUV
Субдискретизация насыщенности : 4:2:0
Битовая глубина : 8 бит
Тип развёртки : MBAFF
Бит/(Пиксели*Кадры) : 0.126
Размер потока : 1,80 Гбайт (86%)
Библиотека кодирования : x264 core 116 r2019M 9cc407d
Настройки программы : cabac=1 / ref=3 / deblock=1:-1:-1 / analyse=0x3:0x133 / me=hex / subme=7 / psy=1 / psy_rd=1.00:0.15 / mixed_ref=1 / me_range=16 / chroma_me=1 / trellis=1 / 8x8dct=1 / cqm=0 / deadzone=21,11 / fast_pskip=1 / chroma_qp_offset=-3 / threads=8 / sliced_threads=0 / nr=0 / decimate=1 / interlaced=tff / bluray_compat=0 / constrained_intra=0 / bframes=3 / b_pyramid=1 / b_adapt=2 / b_bias=0 / direct=3 / weightb=1 / open_gop=0 / weightp=0 / keyint=250 / keyint_min=25 / scenecut=40 / intra_refresh=0 / rc_lookahead=40 / rc=abr / mbtree=1 / bitrate=2800 / ratetol=1.0 / qcomp=0.60 / qpmin=10 / qpmax=51 / qpstep=4 / vbv_maxrate=31250 / vbv_bufsize=31250 / nal_hrd=none / ip_ratio=1.40 / aq=1:1.00
Язык : English
Default : Да
Forced : Нет

Аудио
Идентификатор : 2
Формат : AC-3
Формат/Информация : Audio Coding 3
Расширение режима : CM (complete main)
Режим смешивания : Header stripping
Идентификатор кодека : A_AC3
Продолжительность : 1 ч. 34 м.
Вид битрейта : Постоянный
Битрейт : 384 Кбит/сек
Каналы : 6 каналов
Расположение каналов : Front: L C R, Side: L R, LFE
Частота : 48,0 КГц
Битовая глубина : 16 бит
Метод сжатия : С потерями
Размер потока : 261 Мбайт (12%)
Заголовок : MVO
Язык : Russian
Default : Да
Forced : Нет

Текст
Идентификатор : 3
Формат : UTF-8
Идентификатор кодека : S_TEXT/UTF8
Идентификатор кодека/Информация : UTF-8 Plain Text
Язык : Russian
Default : Да
Forced : Нет














Поделиться:




реклама партнёра


Вернуться к началу
 Профиль Отправить личное сообщение  
 
   Похожие торренты   Автор   Торрент   Размер 
В этой теме нет новых непрочитанных сообщений. Верхом на пуле / Riding the Bullet [Ужасы, триллер, 2004] BDRip 1080p, Mvo+Sub

salma3

11 | 2

11.77 ГБ

В этой теме нет новых непрочитанных сообщений. Зубастики. Квадрология / Critters. Quadrilogy (Стивен Херек, Мик Гэррис, Кристин Питерсон, Руперт Харви.) [ужасы, фантастика, боевик, триллер, комедия, 1986-1992] WEB-DLRip-AVC, Mvo+Avo+Sub

Dracon

60 | 14

8.72 ГБ

В этой теме нет новых непрочитанных сообщений. Изгоняющий дьявола: Начало / Exorcist: The Beginning [ужасы, триллер, детектив, 2004] HDTVRip, Mvo

salma3

186 | 12

1.45 ГБ

В этой теме нет новых непрочитанных сообщений. Красная шапочка  / Little Red Riding Hood (Рене Перез) [ужасы, фэнтези, 2015] HDRip, dvo

Dracon

8 | 3

1.36 ГБ

В этой теме нет новых непрочитанных сообщений. Красная шапочка  / Little Red Riding Hood (Рене Перез) [ужасы, фэнтези, 2015] BDRip 720p, dvo

Dracon

10 | 3

3.09 ГБ

В этой теме нет новых непрочитанных сообщений. Ghost Of A Bullet - Ghost Of A Bullet (EP) [12.03.2014, Progressive, Thrash Metal, MP3]

PriZraK

0 | 2

51.32 МБ

В этой теме нет новых непрочитанных сообщений. Люблю верхом [2013 г., Amateur, CamRip]

Dievas2

3 | 2

31.02 МБ


Начать новую тему Ответить на тему  [ 1 сообщение ] 




Для Мосгорсуда, Роскомнадзора и рекламодателей:: mosgorsud-torrent[собачка]yandex.ru