Торрент файл
скачать торрент магнет ссылка Добавлен: 15 янв 2012, 23:21
Размер: 2.42 ГБ
Сидеров: 11
Личеров: 5
Автор

СообщениеДобавлено: 15 янв 2012, 23:21 

Не в сети
Супермодератор
Аватара пользователя
Дата регистрации:
11 апр 2010, 18:10
Спасибо: 5960 / 7
Сообщения: 56765
Куджо / Cujo

Перевод: Профессиональный (многоголосый, закадровый)
Субтитры: Английские (полные, отключаемые)
Формат: HDRip, MKV, H.264, AC3
Страна: США
Режиссер: Льюис Тиг
Жанр: ужасы, триллер
Продолжительность: 01:32:47
Год выпуска: 1983
В ролях: Ди Уоллес-Стоун, Дэнни Пинтауро, Дэниэл Хью Келли, Кристофер Стоун, Эд Лотер, Каюлани Ли, Билли Джейн, Миллс Уотсон, Сэнди Уорд, Джерри Хардин
Описание: Действие фильма происходит в тихом уголке Новой Англии, но никакой идиллии-женщину и ее сына терроризирует собака. Огромный сербернар по кличке Куджо, укушенный летучей мышью…

Видео: 1280x696 (16:9), 23,976 fps, MPEG4 AVC (х264), High@L4.1 ~2800 kbps avg, 0.131 bit/pixel
Аудио#1:Русский: 48 kHz,AC-3, 2 ch, ~192.00 kbps avg [Профессиональный (многоголосый, закадровый)]
Аудио#2:Русский: 48 kHz,AC-3, 6 ch, ~384.00 kbps avg [Авторский (одноголосый, Сергей Визгунов)]
Аудио#3:Английский: 48 kHz,AC-3, 6 ch, ~384.00 kbps avg [Внешним файлом:Оригинал]


Автор РИПа:
Фильм снят по произведению Стивена Кинга

Для съёмок было использовано пять псов, одна механическая собачья голова и человек в шкуре собаки.

Куджо по-индийски означает «неудержимая сила».

Чтобы снять эпизод с нападением сенбернара на машину, дрессировщик положил внутрь любимые игрушки собаки.

Общее
Уникальный идентификатор : 176461825609114842012707104881687690090 (0x84C14FB7CA952931B1C797FEA8E07B6A)
Полное имя : f:\Downloads\cujo_[tfile.ru]\cujo_[tfile.ru].mkv
Формат : Matroska
Версия формата : Version 2
Размер файла : 2,17 Гбайт
Продолжительность : 1 ч. 32 м.
Общий поток : 3347 Кбит/сек
Дата кодирования : UTC 2012-01-12 19:49:34
Программа кодирования : mkvmerge v4.6.0 ('Still Crazy After All These Years') сборка от Mar 10 2011 02:50:32
Библиотека кодирования : libebml v1.2.0 + libmatroska v1.1.0

Видео
Идентификатор : 1
Формат : AVC
Формат/Информация : Advanced Video Codec
Профиль формата : High@L4.1
Параметр CABAC формата : Да
Параметр ReFrames формата : 3 кадра
Режим смешивания : Header stripping
Идентификатор кодека : V_MPEG4/ISO/AVC
Продолжительность : 1 ч. 32 м.
Битрейт : 2800 Кбит/сек
Ширина : 1280 пикселей
Высота : 696 пикселей
Соотношение сторон : 16:9
Режим частоты кадров : Переменный
Частота кадров : 23,976 кадра/сек
Цветовое пространство : YUV
Субдискретизация насыщенности : 4:2:0
Битовая глубина : 8 бит
Тип развёртки : Прогрессивная
Бит/(Пиксели*Кадры) : 0.131
Размер потока : 1,75 Гбайт (81%)
Библиотека кодирования : x264 core 116 r2019M 9cc407d
Настройки программы : cabac=1 / ref=3 / deblock=1:-1:-1 / analyse=0x3:0x133 / me=hex / subme=7 / psy=1 / psy_rd=1.00:0.15 / mixed_ref=1 / me_range=16 / chroma_me=1 / trellis=1 / 8x8dct=1 / cqm=0 / deadzone=21,11 / fast_pskip=1 / chroma_qp_offset=-3 / threads=8 / sliced_threads=0 / nr=0 / decimate=1 / interlaced=0 / bluray_compat=0 / constrained_intra=0 / bframes=3 / b_pyramid=1 / b_adapt=2 / b_bias=0 / direct=3 / weightb=1 / open_gop=0 / weightp=2 / keyint=230 / keyint_min=23 / scenecut=40 / intra_refresh=0 / rc_lookahead=40 / rc=abr / mbtree=1 / bitrate=2800 / ratetol=1.0 / qcomp=0.60 / qpmin=10 / qpmax=51 / qpstep=4 / vbv_maxrate=31250 / vbv_bufsize=31250 / nal_hrd=none / ip_ratio=1.40 / aq=1:1.00
Язык : English
Default : Да
Forced : Нет

Аудио #1
Идентификатор : 2
Формат : AC-3
Формат/Информация : Audio Coding 3
Расширение режима : CM (complete main)
Режим смешивания : Header stripping
Идентификатор кодека : A_AC3
Продолжительность : 1 ч. 32 м.
Вид битрейта : Постоянный
Битрейт : 192 Кбит/сек
Каналы : 2 канала
Расположение каналов : Front: L R
Частота : 48,0 КГц
Битовая глубина : 16 бит
Метод сжатия : С потерями
Размер потока : 127 Мбайт (6%)
Заголовок : MVO
Язык : Russian
Default : Да
Forced : Нет

Аудио #2
Идентификатор : 3
Формат : AC-3
Формат/Информация : Audio Coding 3
Расширение режима : CM (complete main)
Режим смешивания : Header stripping
Идентификатор кодека : A_AC3
Продолжительность : 1 ч. 32 м.
Вид битрейта : Постоянный
Битрейт : 384 Кбит/сек
Каналы : 6 каналов
Расположение каналов : Front: L C R, Side: L R, LFE
Частота : 48,0 КГц
Битовая глубина : 16 бит
Метод сжатия : С потерями
Размер потока : 255 Мбайт (11%)
Заголовок : AVO
Язык : Russian
Default : Нет
Forced : Нет

Текст
Идентификатор : 4
Формат : UTF-8
Идентификатор кодека : S_TEXT/UTF8
Идентификатор кодека/Информация : UTF-8 Plain Text
Язык : English
Default : Да
Forced : Нет
















Поделиться:




реклама партнёра


Вернуться к началу
 Профиль Отправить личное сообщение  
 
   Похожие торренты   Автор   Торрент   Размер 
В этой теме нет новых непрочитанных сообщений. Сладкие 16 / Sweet 16 [ужасы, триллер, 1983] HDRip, Avo

salma3

27 | 8

1.46 ГБ

В этой теме нет новых непрочитанных сообщений. Двойной обман / Double Jeopardy [ужасы, триллер, мелодрама, криминал, детектив, 1983] HDRip, Avo

salma3

53 | 15

1.46 ГБ

В этой теме нет новых непрочитанных сообщений. Лифт / De lift [ужасы, фантастика, фэнтези, 1983] HDRip, Mvo [ТВ3]

salma3

16 | 2

1.45 ГБ

В этой теме нет новых непрочитанных сообщений. Финальный террор / The Final Terror [ужасы, 1983] HDRip, Dvo

salma3

51 | 27

1.49 ГБ

В этой теме нет новых непрочитанных сообщений. Сумеречная зона / Twilight Zone: The Movie [Ужасы, фантастика, фэнтези, 1983] HDRip, Mvo

salma3

0 | 0

745.26 МБ

В этой теме нет новых непрочитанных сообщений. Видеодром / Videodrome [Ужасы, фантастика, триллер, 1983] BDRemux 1080p, Dvo

salma3

5 | 2

26.94 ГБ

В этой теме нет новых непрочитанных сообщений. Голод / The Hunger [ужасы, триллер, драма, мелодрама, 1983] BDRip 1080p, Mvo+Dvo+Avo+Sub

salma3

50 | 10

7.29 ГБ


Начать новую тему Ответить на тему  [ 1 сообщение ] 




Для Мосгорсуда, Роскомнадзора и рекламодателей:: mosgorsud-torrent[собачка]yandex.ru