Торрент файл
скачать торрент магнет ссылка Добавлен: 15 янв 2012, 23:21
Размер: 2.49 ГБ
Сидеров: 50
Личеров: 8
Автор

СообщениеДобавлено: 15 янв 2012, 23:21 

Не в сети
Супермодератор
Аватара пользователя
Дата регистрации:
11 апр 2010, 18:10
Спасибо: 5801 / 7
Сообщения: 56779
Сказки с темной стороны / Tales from the Darkside: The Movie

Перевод: Авторский (одноголосый, Сергей Кузнецов)
Субтитры: Английские (полные, отключаемые)
Формат: HDTVRip, MKV, H.264, AC3
Страна: США
Режиссер: Джон Харрисон
Жанр: ужасы, фэнтези, триллер, комедия
Продолжительность: 01:33:20
Год выпуска: 1990
В ролях: Дебора Харри, Дэвид Форрестер, Мэттью Лоуренс, Кристиан Слэйтер, Роберт Седжвик, Стив Бушеми, Дональд Ван Хорн, Майкл Дик, Джулианна Мур
Описание: Три короткометражных фильма по мотивам рассказов Стивена Кинга: три страшилки, которые рассказывает мальчик ведьме, которая готовится его съесть, пытаясь тем самым выиграть время для своего спасения.

Видео: 1280x720 (16:9), 23,976 fps, MPEG4 AVC (х264), High@L4.1 ~2900 kbps avg, 0.131 bit/pixel
Аудио#1:Русский: 48 kHz,AC-3, 6 ch, ~384.00 kbps avg [Авторский (одноголосый, Сергей Кузнецов)]
Аудио#2:Русский: 48 kHz,AC-3, 2 ch, ~192.00 kbps avg [Внешним файлом:Профессиональный (многоголосый, закадровый, ТВ3)]
Аудио#3:Английский: 48 kHz,AC-3, 6 ch, ~384.00 kbps avg [Внешним файлом:Оригинал]


Автор РИПа:
Общее
Уникальный идентификатор : 237818296882318742547440720725088430310 (0xB2EA234F4EAA358E89186E2F547868E6)
Полное имя : f:\Downloads\tales_from_the_darkside_[tfile.ru]\tales_from_the_darkside_[tfile.ru].mkv
Формат : Matroska
Версия формата : Version 2
Размер файла : 2,12 Гбайт
Продолжительность : 1 ч. 33 м.
Общий поток : 3246 Кбит/сек
Дата кодирования : UTC 2012-01-14 18:48:12
Программа кодирования : mkvmerge v4.6.0 ('Still Crazy After All These Years') сборка от Mar 10 2011 02:50:32
Библиотека кодирования : libebml v1.2.0 + libmatroska v1.1.0

Видео
Идентификатор : 1
Формат : AVC
Формат/Информация : Advanced Video Codec
Профиль формата : High@L4.1
Параметр CABAC формата : Да
Параметр ReFrames формата : 3 кадра
Режим смешивания : Header stripping
Идентификатор кодека : V_MPEG4/ISO/AVC
Продолжительность : 1 ч. 33 м.
Битрейт : 2900 Кбит/сек
Ширина : 1280 пикселей
Высота : 720 пикселей
Соотношение сторон : 16:9
Режим частоты кадров : Переменный
Частота кадров : 23,976 кадра/сек
Цветовое пространство : YUV
Субдискретизация насыщенности : 4:2:0
Битовая глубина : 8 бит
Тип развёртки : Прогрессивная
Бит/(Пиксели*Кадры) : 0.131
Размер потока : 1,82 Гбайт (86%)
Библиотека кодирования : x264 core 116 r2019M 9cc407d
Настройки программы : cabac=1 / ref=3 / deblock=1:-1:-1 / analyse=0x3:0x133 / me=hex / subme=7 / psy=1 / psy_rd=1.00:0.15 / mixed_ref=1 / me_range=16 / chroma_me=1 / trellis=1 / 8x8dct=1 / cqm=0 / deadzone=21,11 / fast_pskip=1 / chroma_qp_offset=-3 / threads=8 / sliced_threads=0 / nr=0 / decimate=1 / interlaced=0 / bluray_compat=0 / constrained_intra=0 / bframes=3 / b_pyramid=1 / b_adapt=2 / b_bias=0 / direct=3 / weightb=1 / open_gop=0 / weightp=2 / keyint=230 / keyint_min=23 / scenecut=40 / intra_refresh=0 / rc_lookahead=40 / rc=abr / mbtree=1 / bitrate=2900 / ratetol=1.0 / qcomp=0.60 / qpmin=10 / qpmax=51 / qpstep=4 / vbv_maxrate=31250 / vbv_bufsize=31250 / nal_hrd=none / ip_ratio=1.40 / aq=1:1.00
Язык : English
Default : Да
Forced : Нет

Аудио
Идентификатор : 2
Формат : AC-3
Формат/Информация : Audio Coding 3
Расширение режима : CM (complete main)
Режим смешивания : Header stripping
Идентификатор кодека : A_AC3
Продолжительность : 1 ч. 33 м.
Вид битрейта : Постоянный
Битрейт : 384 Кбит/сек
Каналы : 6 каналов
Расположение каналов : Front: L C R, Side: L R, LFE
Частота : 48,0 КГц
Битовая глубина : 16 бит
Метод сжатия : С потерями
Размер потока : 256 Мбайт (12%)
Заголовок : AVO
Язык : Russian
Default : Да
Forced : Нет

Текст
Идентификатор : 3
Формат : UTF-8
Идентификатор кодека : S_TEXT/UTF8
Идентификатор кодека/Информация : UTF-8 Plain Text
Язык : English
Default : Да
Forced : Нет
















Поделиться:




реклама партнёра


Вернуться к началу
 Профиль Отправить личное сообщение  
 
   Похожие торренты   Автор   Торрент   Размер 
В этой теме нет новых непрочитанных сообщений. Пираты Карибского моря: Мертвецы не рассказывают сказки / Pirates of the Caribbean: Dead Men Tell No Tales [Фэнтези, боевик, комедия, приключения, 2017] HDRip-1080p, Dub [Тизер]

salma3

1268 | 18

26.73 МБ

В этой теме нет новых непрочитанных сообщений. Байки из склепа / Tales from the Crypt [ужасы, фэнтези, триллер, комедия, криминал, детектив, 1989] DVD5, Avo

salma3

1 | 3

4.18 ГБ

В этой теме нет новых непрочитанных сообщений. Байки из склепа: Демон ночи / Tales from the Crypt: Demon Knight [ужасы, фэнтези, триллер, комедия, 1995] HDRip, Mvo [R5]

salma3

31 | 6

1.46 ГБ

В этой теме нет новых непрочитанных сообщений. Байки из склепа: Демон ночи / Tales from the Crypt: Demon Knight [ужасы, фэнтези, триллер, комедия, 1995] BDRip 1080p, mvo+avo+sub

salma3

53 | 8

7.75 ГБ

В этой теме нет новых непрочитанных сообщений. Зомби нацисты / Сказки мертвых / Battlefield Death Tales [ужасы, военный, 2012] DVDRip, Avo

salma3

2 | 4

1.16 ГБ

В этой теме нет новых непрочитанных сообщений. Страшные сказки / Tale of Tales / Il racconto dei racconti (Маттео Гарроне) [фэнтези, мелодрама, 2015] HDRip, mvo

Dracon

279 | 9

2.05 ГБ

В этой теме нет новых непрочитанных сообщений. Страшные сказки / Tale of Tales / Il racconto dei racconti (Маттео Гарроне) [фэнтези, мелодрама, 2015] Blu-Ray Remux 1080p, mvo+sub

Dracon

23 | 3

23.69 ГБ


Начать новую тему Ответить на тему  [ 1 сообщение ] 




Для Мосгорсуда, Роскомнадзора и рекламодателей:: mosgorsud-torrent[собачка]yandex.ru