Торрент файл
скачать торрент магнет ссылка Добавлен: 15 янв 2012, 22:46
Размер: 747.88 МБ
Сидеров: 4
Личеров: 3
Автор

СообщениеДобавлено: 15 янв 2012, 22:46 

Не в сети
Супермодератор
Аватара пользователя
Дата регистрации:
11 апр 2010, 18:10
Спасибо: 5799 / 7
Сообщения: 56779
Человек Омега / The Omega Man


Перевод: Профессиональный (многоголосый, закадровый), cубтитры: отсутствуют
Формат: HDRip, AVI, XviD, MP3
Страна: США
Режиссер: Борис Сагал
Жанр: фантастика, боевик, триллер
Продолжительность: 01:38:00
Год выпуска: 1971
В ролях: Чарлтон Хестон, Энтони Зерби, Розалинд Кэш, Пол Косло, Эрик Ланёвилль, Линкольн Килпэтрик, Джилл Джиральди, Анна Ариес, Брайан Точи

Описание: Экранизация романа Ричарда Мэтесона. Всемирная бактериологическая война облетела планету в 1975 году. Почти все погибли. Оставшиеся в живых превратились в мутантов, которые к тому же не выносят солнечного света.

Теперь они выходят на улицы городов только с наступлением сумерек, но уж зато в темноте они — короли положения. Единственный житель Лос-Анджелеса, не пострадавший и не погибший, — полковник армии США. Он и вступает в борьбу с мутантами.




Видео: 688x288 (2.39:1), 23.976 fps, XviD build 47 ~929 kbps avg, 0.20 bit/pixel
Аудио: 48 kHz, MPEG Layer 3, 2 ch, ~128.00 kbps avg




Общее
Полное имя: E:\The.Omega.Man.1971.avi
Формат: AVI
Формат/Информация: Audio Video Interleave
Размер файла: 748 Мбайт
Продолжительность: 1 ч. 38 м.
Общий поток: 1067 Кбит/сек
Программа кодирования: VirtualDubMod 1.5.10.2 (build 2540/release)
Библиотека кодирования: VirtualDubMod build 2540/release

Видео
Идентификатор: 0
Формат: MPEG-4 Visual
Профиль формата: Advanced Simple@L5
Параметр BVOP формата: 1
Параметр QPel формата: Нет
Параметр GMC формата: Без точки перехода
Параметр матрицы формата: Default (MPEG)
Идентификатор кодека: XVID
Идентификатор кодека/Подсказка: XviD
Продолжительность: 1 ч. 38 м.
Битрейт: 929 Кбит/сек
Ширина: 688 пикс.
Высота: 288 пикс.
Соотношение сторон: 2,35:1
Частота кадров: 23,976 кадр/сек
Цветовое пространство: YUV
Подвыборка цветности: 4:2:0
Битовая глубина: 8 бит
Тип развёртки: Прогрессивная
Метод сжатия: С потерями
Бит/(Пиксели*Кадры): 0.196
Размер потока: 652 Мбайт (87%)
Библиотека кодирования: XviD 1.2.0.dev47 (UTC 2006-11-01)

Аудио
Идентификатор: 1
Формат: MPEG Audio
Версия формата: Version 1
Профиль формата: Layer 3
Идентификатор кодека: 55
Идентификатор кодека/Подсказка: MP3
Продолжительность: 1 ч. 38 м.
Вид битрейта: Постоянный
Битрейт: 128 Кбит/сек
Канал(ы): 2 канала(ов)
Частота: 48,0 КГц
Метод сжатия: С потерями
Размер потока: 89,7 Мбайт (12%)
Выравнивание: Соединение по промежуткам
Продолжительность промежутка: 42мс. (1,00 видеокадр)
Время предзагрузки промежутка: 504 ms
Библиотека кодирования: LAME3.97
Настройки программы: -m s -V 4 -q 2 -lowpass 17 -b 128





Поделиться:




реклама партнёра


Вернуться к началу
 Профиль Отправить личное сообщение  
 
   Похожие торренты   Автор   Торрент   Размер 
В этой теме нет новых непрочитанных сообщений. Код «Омега» / The Omega Code [боевик, триллер, драма, 1999] DVDRip, Mvo+Sub

salma3

14 | 3

1.46 ГБ

В этой теме нет новых непрочитанных сообщений. Альфа и Омега: Приключения праздничного воя / Alpha and Omega 2: A Howl-iday Adventure [комедия, приключения, семейный, мультфильм, 2013] HDRip, Mvo

Dracon

0 | 2

699.85 МБ

В этой теме нет новых непрочитанных сообщений. Альфа и Омега 3 / Alpha and Omega 3: The Great Wolf Games (Ричард Рич) [Мультфильм, комедия, приключения, семейный, 2014] WEB-DL 720p, dvo

Dracon

985 | 36

1.59 ГБ

В этой теме нет новых непрочитанных сообщений. Голографический человек / Hologram Man [Фантастика, боевик, триллер, 1995] HDRip, Dvo [НТВ]

salma3

55 | 3

1.37 ГБ

В этой теме нет новых непрочитанных сообщений. Discovery. Гигантские самолеты. Омега 707 / Discovery. Mighty planes. Omega 707 [документальный, 2014] SATRip, Avo

salma3

0 | 6

371.13 МБ

В этой теме нет новых непрочитанных сообщений. Альфа и Омега: Приключения праздничного воя / Alpha and Omega 2: A Howl-iday Adventure [комедия, приключения, семейный, мультфильм, 2013] BDRip 720p, Mvo

Dracon

173 | 7

2.02 ГБ

В этой теме нет новых непрочитанных сообщений. Цифровой человек / Digital Man [Фантастика, боевик, триллер, 1995] DVDRip, Dvo

salma3

65 | 0

747.2 МБ


Начать новую тему Ответить на тему  [ 1 сообщение ] 




Для Мосгорсуда, Роскомнадзора и рекламодателей:: mosgorsud-torrent[собачка]yandex.ru