Торрент файл
скачать торрент магнет ссылка Добавлен: 15 янв 2012, 22:44
Размер: 1.37 ГБ
Сидеров: 7
Личеров: 3
Автор

СообщениеДобавлено: 15 янв 2012, 22:44 

Не в сети
Супермодератор
Аватара пользователя
Дата регистрации:
11 апр 2010, 18:10
Спасибо: 5801 / 7
Сообщения: 56779
Лебедь / The Swan


Перевод: Профессиональный (многоголосый, закадровый), cубтитры: отсутствуют
Формат: DVDRip, AVI, XviD, AC3
Страна: США
Режиссер: Чарльз Видор
Жанр: драма, мелодрама, комедия
Продолжительность: 01:47:53
Год выпуска: 1956
В ролях: Грэйс Келли, Алек Гиннесс, Луи Журдан, Агнес Мурхед, Джесси Ройс Лэндис, Брайан Ахерн, Лео Г. Кэррол, Эстель Уинвуд, Ван Дайк Паркс, Кристофер Кук

Описание: По одноименной пьесе Ференца Молнара. Принцесса Александра по настоянию своей матери старается понравиться своему дальнему родственнику, кронпринцу Альберту…



Видео:704x304 (2.32:1), 23.976 fps, XviD MPEG-4 ~1415 kbps avg, 0.28 bit/pixel
Аудио#1: Русский 48 kHz, AC3 Dolby Digital, 2/0 (L,R) ch, ~192.00 kbps avg[Профессиональный (многоголосый, закадровый)]
Аудио#2: Английский48 kHz, AC3 Dolby Digital, 2/0 (L,R) ch, ~192.00 kbps avg [Оригинал]




Общее
Полное имя: E:\Lebed.1956.XviD.DVDRip.avi
Формат: AVI
Формат/Информация: Audio Video Interleave
Размер файла: 1,37 Гбайт
Продолжительность: 1 ч. 47 м.
Общий поток: 1814 Кбит/сек
Название фильма: Лебедь /Swan, The/ (1956)
Программа кодирования: VirtualDubModRus 1.5.10.2 (build 2540/release)
Примечание: www.fenixclub.com

Видео
Идентификатор: 0
Формат: MPEG-4 Visual
Профиль формата: Advanced Simple@L5
Параметр BVOP формата: 2
Параметр QPel формата: Нет
Параметр GMC формата: Без точки перехода
Параметр матрицы формата: Default (MPEG)
Идентификатор кодека: XVID
Идентификатор кодека/Подсказка: XviD
Продолжительность: 1 ч. 47 м.
Битрейт: 1416 Кбит/сек
Ширина: 704 пикс.
Высота: 304 пикс.
Соотношение сторон: 2,35:1
Частота кадров: 23,976 кадр/сек
Цветовое пространство: YUV
Подвыборка цветности: 4:2:0
Битовая глубина: 8 бит
Тип развёртки: Прогрессивная
Метод сжатия: С потерями
Бит/(Пиксели*Кадры): 0.276
Размер потока: 1,07 Гбайт (78%)
Библиотека кодирования: XviD 63

Аудио #1
Идентификатор: 1
Формат: AC-3
Формат/Информация: Audio Coding 3
Расширение режима: CM (complete main)
Идентификатор кодека: 2000
Продолжительность: 1 ч. 47 м.
Вид битрейта: Постоянный
Битрейт: 192 Кбит/сек
Канал(ы): 2 канала(ов)
Расположение каналов: Front: L R
Частота: 48,0 КГц
Битовая глубина: 16 бит
Метод сжатия: С потерями
Размер потока: 148 Мбайт (11%)
Выравнивание: Разделение по промежуткам
Продолжительность промежутка: 42мс. (1,00 видеокадр)
Время предзагрузки промежутка: 500 ms

Аудио #2
Идентификатор: 2
Формат: AC-3
Формат/Информация: Audio Coding 3
Расширение режима: CM (complete main)
Идентификатор кодека: 2000
Продолжительность: 1 ч. 47 м.
Вид битрейта: Постоянный
Битрейт: 192 Кбит/сек
Канал(ы): 2 канала(ов)
Расположение каналов: Front: L R
Частота: 48,0 КГц
Битовая глубина: 16 бит
Метод сжатия: С потерями
Размер потока: 148 Мбайт (11%)
Выравнивание: Разделение по промежуткам
Продолжительность промежутка: 42мс. (1,00 видеокадр)
Время предзагрузки промежутка: 500 ms





Поделиться:




реклама партнёра


Вернуться к началу
 Профиль Отправить личное сообщение  
 
   Похожие торренты   Автор   Торрент   Размер 
В этой теме нет новых непрочитанных сообщений. Принцесса Лебедь: Пират или принцесса? / The Swan Princess: Princess Tomorrow, Pirate Today! [Мультфильм, семейный, 2016] WEB-DL 720p, Mvo [iTunes]

salma3

590 | 117

2.51 ГБ

В этой теме нет новых непрочитанных сообщений. Принцесса Лебедь: Пират или принцесса? / The Swan Princess: Princess Tomorrow, Pirate Today! [Мультфильм, семейный, 2016] WEB-DLRip, Mvo [iTunes]

salma3

141 | 98

1.37 ГБ

В этой теме нет новых непрочитанных сообщений. Елена и мужчины / Elena et les hommes [драма, мелодрама, комедия, 1956] BDRip 1080p, 3Mvo+Sub

salma3

10 | 2

7.83 ГБ

В этой теме нет новых непрочитанных сообщений. Слова, написанные на ветру / Written on the Wind [Драма, мелодрама, 1956] DVDRip, Mvo

salma3

10 | 2

1.37 ГБ

В этой теме нет новых непрочитанных сообщений. Три жестоких человека / Three Violent People [вестерн, 1956] DVDRip, Mvo

salma3

24 | 2

1.36 ГБ

В этой теме нет новых непрочитанных сообщений. Анатолий Лебедь. Досье русского Рэмбо [Документальный, 2014] SATRip

Dracon

118 | 5

539 МБ

В этой теме нет новых непрочитанных сообщений. Tanya Donelly - Swan Song Series Vol. 1 (EP) [2013, Alternative, MP3]

PriZraK

0 | 1

45.5 МБ


Начать новую тему Ответить на тему  [ 1 сообщение ] 




Для Мосгорсуда, Роскомнадзора и рекламодателей:: mosgorsud-torrent[собачка]yandex.ru