Торрент файл
скачать торрент магнет ссылка Добавлен: 15 янв 2012, 22:44
Размер: 1.38 ГБ
Сидеров: 6
Личеров: 4
Автор

СообщениеДобавлено: 15 янв 2012, 22:44 

Не в сети
Супермодератор
Аватара пользователя
Дата регистрации:
11 апр 2010, 18:10
Спасибо: 5802 / 7
Сообщения: 56779
Мария Шотландская / Mary of Scotland


Перевод: Профессиональный (двухголосый), cубтитры: отсутствуют
Формат: DVDRip, AVI, XviD, AC3
Страна: США
Режиссер: Джон Форд, Лесли Гудвинс
Жанр: драма, мелодрама, биография, история
Продолжительность: 02:22:34
Год выпуска: 1936
В ролях: Кэтрин Хепберн, Фредрик Марч, Флоренс Элдридж, Дуглас Уолтон, Джон Кэррэдин, Роберт Бэррэт, Роберт Уорвик, Дорис Ллойд, Монти Блу, Мэри Гордон, Лайонел Пэйп, Джин Фенвик, Анита Колби, Молли Ламонт, Ральф Форбс, Алан Маубрэй, Фрида Инескорт, Дональд Крисп, Дэвид Торренс, Молли Ламонт, Уильям Стэк, Морони Олсен, Иэн Кит, Гэвин Мьюир

Описание: Королева Мария Стюарт, овдовев, возвращается из Франции инкогнито в родную Шотландию и заявляет претензии на английский престол (в качестве правнучки английского короля Генриха VII). Попытка Марии Стюарт укрепить свою власть в Шотландии, опираясь на католическую знать, вызывает недовольство шотландских кальвинистов, которое выливается в восстание…



Видео: 720x544 (1.32:1), 25 fps, XviD MPEG-4 ~1181 kbps avg, 0.12 bit/pixel
Аудио: 48 kHz, AC3 Dolby Digital, 2/0 (L,R) ch, ~192.00 kbps avg




Общее
Полное имя: E:\Mariya.schotlandskay.1936.DVDRip.avi
Формат: AVI
Формат/Информация: Audio Video Interleave
Размер файла: 1,38 Гбайт
Продолжительность: 2 ч. 22 м.
Общий поток: 1383 Кбит/сек
Режиссёр: ВАЛЬКИРИЯ для сайта Generalfilm.ru
Программа кодирования: VirtualDubMod 1.5.10.3 | www.virtualdub-fr.org || (build 2550/release)

Видео
Идентификатор: 0
Формат: MPEG-4 Visual
Профиль формата: Advanced Simple@L5
Параметр BVOP формата: 2
Параметр QPel формата: Нет
Параметр GMC формата: Без точки перехода
Параметр матрицы формата: Default (H.263)
Режим смешивания: Сжатый битовый поток
Идентификатор кодека: XVID
Идентификатор кодека/Подсказка: XviD
Продолжительность: 2 ч. 22 м.
Битрейт: 1181 Кбит/сек
Ширина: 720 пикс.
Высота: 544 пикс.
Соотношение сторон: 4:3
Частота кадров: 25,000 кадр/сек
Цветовое пространство: YUV
Подвыборка цветности: 4:2:0
Битовая глубина: 8 бит
Тип развёртки: Прогрессивная
Метод сжатия: С потерями
Бит/(Пиксели*Кадры): 0.121
Размер потока: 1,18 Гбайт (85%)
Библиотека кодирования: XviD 1.2.1 (UTC 2008-12-04)

Аудио
Идентификатор: 1
Формат: AC-3
Формат/Информация: Audio Coding 3
Расширение режима: CM (complete main)
Идентификатор кодека: 2000
Продолжительность: 2 ч. 22 м.
Вид битрейта: Постоянный
Битрейт: 192 Кбит/сек
Канал(ы): 2 канала(ов)
Расположение каналов: Front: L R
Частота: 48,0 КГц
Битовая глубина: 16 бит
Метод сжатия: С потерями
Размер потока: 196 Мбайт (14%)
Выравнивание: Разделение по промежуткам
Продолжительность промежутка: 40мс. (1,00 видеокадр)
Время предзагрузки промежутка: 500 ms





Поделиться:




реклама партнёра


Вернуться к началу
 Профиль Отправить личное сообщение  
 
   Похожие торренты   Автор   Торрент   Размер 
В этой теме нет новых непрочитанных сообщений. Мария - королева Шотландии / Mary Queen of Scots [драма, биография, история, 2013] BDRip, Mvo [НТВ+]

salma3

11 | 4

2.06 ГБ

В этой теме нет новых непрочитанных сообщений. Мария – королева Шотландии / Mary Queen of Scots [драма, мелодрама, биография, 2013] WEB-DLRip, Mvo

salma3

165 | 10

1.46 ГБ

В этой теме нет новых непрочитанных сообщений. Мария-Антуанетта / Marie Antoinette [драма, биография, история, 2006] BDRip 720p, Mvo+Avo+Sub

salma3

11 | 3

11.34 ГБ

В этой теме нет новых непрочитанных сообщений. Мэри Ком / Mary Kom [Драма, биография, спорт, 2014] DVDRip, Sub

salma3

0 | 3

1.42 ГБ

В этой теме нет новых непрочитанных сообщений. Леди Джейн / Lady Jane [драма, мелодрама, биография, история, 1985] DVDRip, Dub

salma3

63 | 4

1.46 ГБ

В этой теме нет новых непрочитанных сообщений. Мэри Ком / Mary Kom [Драма, биография, спорт, 2014] HDRip, Mvo+Sub

salma3

247 | 19

2.17 ГБ

В этой теме нет новых непрочитанных сообщений. Настоящая женщина / True Women [драма, мелодрама, вестерн, военный, биография, история, 1997] DVDRip, Mvo

salma3

26 | 4

1.37 ГБ


Начать новую тему Ответить на тему  [ 1 сообщение ] 




Для Мосгорсуда, Роскомнадзора и рекламодателей:: mosgorsud-torrent[собачка]yandex.ru