Торрент файл
скачать торрент магнет ссылка Добавлен: 15 янв 2012, 22:44
Размер: 704.28 МБ
Сидеров: 5
Личеров: 4
Автор

СообщениеДобавлено: 15 янв 2012, 22:44 

Не в сети
Супермодератор
Аватара пользователя
Дата регистрации:
11 апр 2010, 18:10
Спасибо: 5798 / 7
Сообщения: 56779
Лис пустыни / The Desert Fox: The Story of Rommel


Перевод: Профессиональный (одноголосый), cубтитры: отсутствуют
Формат: DVDRip, AVI, DivX, MP3
Страна: США
Режиссер: Генри Хэтэуэй
Жанр: боевик, драма, военный, биография, история
Продолжительность: 02:10:00
Год выпуска: 1951
В ролях: : Джеймс Мейсон, Седрик Хардвик, Лео Г. Кэррол, Эверет Слоун, Эдуард Франц, Десмонд Янг, Джордж МакРеди, Ричард Бун, Джессика Тэнди, Лютер Эдлер

Описание: Война, как говорится, «и в Африке — война». Еще неизвестно, что лучше: сорокоградусные морозы под Смоленском или пятидесятиградусная жара под Каиром. Армии строптивого генерала Роммеля утюжат танковыми гусеницами пески Сахары во имя торжества Третьего рейха. Опытный вояка и искусный стратег приготовил своим противникам множество загадок.

Тем временем высшее руководство во главе с фюрером раздает из Берлина глупые приказы, заставляющие генерала Роммеля в очередной раз усомниться в здравомыслии Гитлера…




Видео: 688x494 (1.39:1), 25 fps, DivX Codec 5.2.1 build 1328 ~975 kbps avg, 0.11 bit/pixel
Аудио:48 kHz, MPEG Layer 3, 2 ch, ~128.00 kbps avg




Общее
Полное имя: E:\Rommellispustyni.avi
Формат: AVI
Формат/Информация: Audio Video Interleave
Размер файла: 704 Мбайт
Продолжительность: 1 ч. 28 м.
Общий поток: 1113 Кбит/сек
Библиотека кодирования: VirtualDub build 18160/release

Видео
Идентификатор: 0
Формат: MPEG-4 Visual
Параметр BVOP формата: 1
Параметр QPel формата: Нет
Параметр GMC формата: Без точки перехода
Параметр матрицы формата: Default (H.263)
Режим смешивания: Сжатый битовый поток
Идентификатор кодека: DX50
Идентификатор кодека/Подсказка: DivX 5
Продолжительность: 1 ч. 28 м.
Битрейт: 976 Кбит/сек
Ширина: 688 пикс.
Высота: 494 пикс.
Соотношение сторон: 1,393
Частота кадров: 25,000 кадр/сек
Цветовое пространство: YUV
Подвыборка цветности: 4:2:0
Битовая глубина: 8 бит
Тип развёртки: Прогрессивная
Метод сжатия: С потерями
Бит/(Пиксели*Кадры): 0.115
Размер потока: 617 Мбайт (88%)
Библиотека кодирования: DivX 5.2.1 (WaffleDay) (UTC 2004-09-0

Аудио
Идентификатор: 1
Формат: MPEG Audio
Версия формата: Version 1
Профиль формата: Layer 3
Режим: Joint stereo
Расширение режима: MS Stereo
Идентификатор кодека: 55
Идентификатор кодека/Подсказка: MP3
Продолжительность: 1 ч. 28 м.
Вид битрейта: Постоянный
Битрейт: 128 Кбит/сек
Канал(ы): 2 канала(ов)
Частота: 48,0 КГц
Метод сжатия: С потерями
Размер потока: 81,0 Мбайт (11%)
Выравнивание: Разделение по промежуткам
Продолжительность промежутка: 40мс. (1,00 видеокадр)
Время предзагрузки промежутка: 500 ms
Библиотека кодирования: LAME3.96.1





Поделиться:




реклама партнёра


Вернуться к началу
 Профиль Отправить личное сообщение  
 
   Похожие торренты   Автор   Торрент   Размер 
В этой теме нет новых непрочитанных сообщений. Королева пустыни / Queen of the Desert [Драма, биография, исторический, 2015] WEB-DLRip, dvo

Dracon

419 | 20

1.4 ГБ

В этой теме нет новых непрочитанных сообщений. Храброе сердце / Braveheart [боевик, драма, военный, биография, история, 1995] Blu-Ray, Dub+Sub [Лицензия]

salma3

61 | 67

37.24 ГБ

В этой теме нет новых непрочитанных сообщений. История Марты Стюарт / Martha, Inc.: The Story of Martha Stewart [драма, биография, 2003] DVDRip, Dvo+Avo

salma3

55 | 3

1.46 ГБ

В этой теме нет новых непрочитанных сообщений. Простая история / The Straight Story [драма, приключения, биография, 1999] BDRip 720p, Mvo+Avo+Sub

salma3

27 | 5

4.99 ГБ

В этой теме нет новых непрочитанных сообщений. Свободный штат Джонса / Free State of Jones [Боевик, драма, военный, биография, история, 2016] HDRip, Мvo

salma3

2282 | 381

1.37 ГБ

В этой теме нет новых непрочитанных сообщений. Пропуск / Laissez-passer [драма, военный, биография, история, 2002] DVDRip, Dvo

salma3

24 | 1

2.05 ГБ

В этой теме нет новых непрочитанных сообщений. Свободный штат Джонса / Free State of Jones [Боевик, драма, военный, биография, история, 2016] BDRip 1080p, Мvo

salma3

108 | 11

12 ГБ


Начать новую тему Ответить на тему  [ 1 сообщение ] 




Для Мосгорсуда, Роскомнадзора и рекламодателей:: mosgorsud-torrent[собачка]yandex.ru