Торрент файл
скачать торрент магнет ссылка Добавлен: 15 янв 2012, 22:43
Размер: 1.41 ГБ
Сидеров: 79
Личеров: 13
Автор

СообщениеДобавлено: 15 янв 2012, 22:43 

Не в сети
Супермодератор
Аватара пользователя
Дата регистрации:
11 апр 2010, 18:10
Спасибо: 5801 / 7
Сообщения: 56779
Жилец / The Tenant / Le locataire


Перевод: Профессиональный (многоголосый, закадровый), cубтитры: отсутствуют
Формат: DVDRip, AVI, XviD, AC3
Страна: Франция
Режиссер: Роман Полански
Жанр: ужасы, триллер, драма, детектив
Продолжительность: 02:05:25
Год выпуска: 1976
В ролях: Бернар Фрессон, Клод Пьеплю, Мелвин Дуглас, Лиля Кедрова, Клод Дофен, Изабель Аджани, Джо Ван Флит, Роман Бутей, Рюфюс, Роман Полански

Описание: Маленький человек Трелковски снимает квартиру в обветшалом доме, жители которого — старые, замкнутые отшельники. Узнав, что предыдущая хозяйка квартиры покончила с собой, выбросившись из окна, Трелковски постепенно приходит к мысли, что соседи замышляют против него недоброе.

В заговоре он винит даже Стеллу, молодую женщину, в которую влюбился. Чем дальше, тем сильнее бывшая квартирантка завладевает его мыслями и он во что бы то ни стало хочет раскрыть тайну умершей женщины и ее судьбы…




Видео: 720x400 (1.80:1), 29.970 fps, XviD build 50 ~1218 kbps avg, 0.14 bit/pixel
Аудио#1: Русский48 kHz, AC3 Dolby Digital, 2/0 (L,R) ch, ~192.00 kbps avg[Профессиональный (многоголосый, закадровый),]
Аудио#2: Французский48 kHz, AC3 Dolby Digital, 2/0 (L,R) ch, ~192.00 kbps avg [Оригинал]




Общее
Полное имя: E:\The.Tenant.1976.avi
Формат: AVI
Формат/Информация: Audio Video Interleave
Профиль формата: OpenDML
Настройки формата: rec
Размер файла: 1,41 Гбайт
Продолжительность: 2 ч. 5 м.
Общий поток: 1611 Кбит/сек
Программа кодирования: AVI-Mux GUI 1.17.8, Aug 30 200812:36:58

Видео
Идентификатор: 0
Формат: MPEG-4 Visual
Профиль формата: Advanced Simple@L5
Параметр BVOP формата: 1
Параметр QPel формата: Нет
Параметр GMC формата: 3 точки перехода
Параметр матрицы формата: Default (MPEG)
Идентификатор кодека: XVID
Идентификатор кодека/Подсказка: XviD
Продолжительность: 2 ч. 5 м.
Битрейт: 1219 Кбит/сек
Ширина: 720 пикс.
Высота: 400 пикс.
Соотношение сторон: 16:9
Частота кадров: 29,970 кадр/сек
Цветовое пространство: YUV
Подвыборка цветности: 4:2:0
Битовая глубина: 8 бит
Тип развёртки: Прогрессивная
Метод сжатия: С потерями
Бит/(Пиксели*Кадры): 0.141
Размер потока: 1,07 Гбайт (76%)
Библиотека кодирования: XviD 1.2.1 (UTC 2008-12-04)

Аудио #1
Идентификатор: 1
Формат: AC-3
Формат/Информация: Audio Coding 3
Расширение режима: CM (complete main)
Идентификатор кодека: 2000
Продолжительность: 2 ч. 5 м.
Вид битрейта: Постоянный
Битрейт: 192 Кбит/сек
Канал(ы): 2 канала(ов)
Расположение каналов: Front: L R
Частота: 48,0 КГц
Битовая глубина: 16 бит
Метод сжатия: С потерями
Размер потока: 172 Мбайт (12%)
Выравнивание: Соединение по промежуткам
Продолжительность промежутка: 64мс. (1,92 видеокадров)
Время предзагрузки промежутка: 192 ms

Аудио #2
Идентификатор: 2
Формат: AC-3
Формат/Информация: Audio Coding 3
Расширение режима: CM (complete main)
Идентификатор кодека: 2000
Продолжительность: 2 ч. 5 м.
Вид битрейта: Постоянный
Битрейт: 192 Кбит/сек
Канал(ы): 2 канала(ов)
Расположение каналов: Front: L R
Частота: 48,0 КГц
Битовая глубина: 16 бит
Метод сжатия: С потерями
Размер потока: 172 Мбайт (12%)
Выравнивание: Соединение по промежуткам
Продолжительность промежутка: 64мс. (1,92 видеокадров)
Время предзагрузки промежутка: 192 ms





Поделиться:




реклама партнёра


Вернуться к началу
 Профиль Отправить личное сообщение  
 
   Похожие торренты   Автор   Торрент   Размер 
В этой теме нет новых непрочитанных сообщений. Жилец / The Lodger [ужасы, триллер, криминал, детектив, 1944] DVDRip-AVC, Avo

salma3

17 | 3

1.47 ГБ

В этой теме нет новых непрочитанных сообщений. Куклы за колючей проволоко / Frauengefаngnis [ужасы, триллер, драма, криминал, 1976] DVDRip, Avo

salma3

3 | 2

1.37 ГБ

В этой теме нет новых непрочитанных сообщений. Частный детектив / L'alpagueur [боевик, триллер, криминал, 1976] DVDRip, Dub

salma3

16 | 4

1.36 ГБ

В этой теме нет новых непрочитанных сообщений. Наваждение / Obsession [триллер, драма, детектив, 1976] BDRip 720p, Dub+Mvo+Sub

salma3

57 | 2

3.82 ГБ

В этой теме нет новых непрочитанных сообщений. Вся президентская рать / All the President's Men [триллер, драма, детектив, история, 1976] BDRip 1080p, 2Mvo+Dvo+Avo+Sub

salma3

3 | 3

18.72 ГБ

В этой теме нет новых непрочитанных сообщений. Вся президентская рать / All the President's Men [триллер, драма, детектив, история, 1976] BDRip 720p, 2Mvo+Dvo+Avo+Sub

salma3

45 | 4

8.56 ГБ

В этой теме нет новых непрочитанных сообщений. Труп моего врага / Le corps de mon ennemi [триллер, драма, криминал, детектив, 1976] BDRip 720p, Mvo

salma3

51 | 9

5.11 ГБ


Начать новую тему Ответить на тему  [ 1 сообщение ] 




Для Мосгорсуда, Роскомнадзора и рекламодателей:: mosgorsud-torrent[собачка]yandex.ru