Торрент файл
скачать торрент магнет ссылка Добавлен: 15 янв 2012, 22:42
Размер: 1.95 ГБ
Сидеров: 0
Личеров: 14
Автор

СообщениеДобавлено: 15 янв 2012, 22:42 

Не в сети
Супермодератор
Аватара пользователя
Дата регистрации:
11 апр 2010, 18:10
Спасибо: 5799 / 7
Сообщения: 56779
Война миров / The War of the Worlds

Перевод: Профессиональный (двухголосый), cубтитры: английские (полные, отключаемые), русские (полные, отключаемые)
Формат: HDTVRip, MKV, H.264, AC3
Страна: США
Режиссер: Байрон Хэскин
Жанр: фантастика
Продолжительность: 01:21:51
Год выпуска: 1953
В ролях: Джин Бэрри, Энн Робинсон, Лес Тремейн, Роберт Корнтуэйт, Сандро Джильо, Льюис Мартин, Пол Фрис, Уильям Фиппс, Вернон Рич
Описание: Экранизация одноименного романа Герберта Джорджа Уэллса.
На окраине маленького городка упал метеорит. Это событие будоражит воображение местных жителей. Это же первый Контакт, но… марсиане пришли не с миром. Долгое время они пристально изучали землю, чтобы начать вторжение. Всего за пару дней все города были разрушены, армии всего мира потерпели поражение.
Кажется, что гибель человечества неизбежна. Спасения нет! А доктор Клайтон Форрестер пытается уберечь свою возлюбленную Сильвию от кошмара, творящегося вокруг. Неужели человечество будет стерто с лица земли?


Видео: 960x544 (16:9), 25 fps, MPEG4 AVC (х264), High@L4.1 ~2664 kbps avg, 0.204 bit/pixel
Аудио#1:Русский: 48 kHz, AC-3, 2 ch, ~224.00 kbps avg [Профессиональный (двухголосый)(Film Prestige)]
Аудио#2:Русский: 48 kHz, AC-3, 2 ch, ~224.00 kbps avg [Профессиональный (двухголосый)(DVD Магия)]
Аудио#3:Английский: 48 kHz, AC-3, 2 ch, ~224.00 kbps avg [Оригинал]

Награды:
Оскар, 1954 год
Победитель (1):
Лучшие спецэффекты
Номинации (2):
Лучший звук
Лучший монтаж

Общее
Уникальный идентификатор : 247247373858113276172412948566508837433 (0xBA021CB27BD194CBA61F66FBE5F41A39)
Полное имя : f:\the_war_of_the_worlds_[tfile.ru].mkv
Формат : Matroska
Размер файла : 1,95 Гбайт
Продолжительность : 1 ч. 21 м.
Общий поток : 3404 Кбит/сек
Дата кодирования : UTC 2011-05-11 19:49:29
Программа кодирования : mkvmerge v3.4.0 ('Rapunzel') сборка от May 15 2010 09:38:20
Библиотека кодирования : libebml v0.8.0 + libmatroska v0.9.0

Видео
Идентификатор : 1
Формат : AVC
Формат/Информация : Advanced Video Codec
Профиль формата : High@L4.1
Параметр CABAC формата : Да
Параметр ReFrames формата : 9 кадров
Идентификатор кодека : V_MPEG4/ISO/AVC
Продолжительность : 1 ч. 21 м.
Битрейт : 2664 Кбит/сек
Ширина : 960 пикс.
Высота : 544 пикс.
Соотношение сторон : 16:9
Частота кадров : 25,000 кадр/сек
Цветовое пространство : YUV
Подвыборка цветности : 4:2:0
Битовая глубина : 8 бит
Тип развёртки : Прогрессивная
Бит/(Пиксели*Кадры) : 0.204
Размер потока : 1,52 Гбайт (78%)
Заголовок : War of the Worlds by itsamna (AnTo}{@)
Библиотека кодирования : x264 core 115 r1947 b5a8ad7
Настройки программы : cabac=1 / ref=9 / deblock=1:-3:-3 / analyse=0x3:0x133 / me=umh / subme=10 / psy=1 / psy_rd=1.00:0.25 / mixed_ref=1 / me_range=24 / chroma_me=1 / trellis=2 / 8x8dct=1 / cqm=0 / deadzone=21,11 / fast_pskip=0 / chroma_qp_offset=-4 / threads=3 / sliced_threads=0 / nr=0 / decimate=1 / interlaced=0 / bluray_compat=0 / constrained_intra=0 / bframes=7 / b_pyramid=2 / b_adapt=2 / b_bias=0 / direct=3 / weightb=1 / open_gop=0 / weightp=2 / keyint=250 / keyint_min=25 / scenecut=40 / intra_refresh=0 / rc_lookahead=60 / rc=crf / mbtree=1 / crf=19.0 / qcomp=0.70 / qpmin=0 / qpmax=51 / qpstep=4 / ip_ratio=1.40 / aq=1:1.00

Аудио #1
Идентификатор : 2
Формат : AC-3
Формат/Информация : Audio Coding 3
Расширение режима : CM (complete main)
Идентификатор кодека : A_AC3
Продолжительность : 1 ч. 21 м.
Вид битрейта : Постоянный
Битрейт : 224 Кбит/сек
Каналы : 2 канала
Расположение каналов : Front: L R
Частота : 48,0 КГц
Битовая глубина : 16 бит
Метод сжатия : С потерями
Размер потока : 131 Мбайт (7%)
Заголовок : Film Prestige
Язык : Russian

Аудио #2
Идентификатор : 3
Формат : AC-3
Формат/Информация : Audio Coding 3
Расширение режима : CM (complete main)
Идентификатор кодека : A_AC3
Продолжительность : 1 ч. 21 м.
Вид битрейта : Постоянный
Битрейт : 224 Кбит/сек
Каналы : 2 канала
Расположение каналов : Front: L R
Частота : 48,0 КГц
Битовая глубина : 16 бит
Метод сжатия : С потерями
Размер потока : 131 Мбайт (7%)
Заголовок : DVD Магия
Язык : Russian

Аудио #3
Идентификатор : 4
Формат : AC-3
Формат/Информация : Audio Coding 3
Расширение режима : CM (complete main)
Идентификатор кодека : A_AC3
Продолжительность : 1 ч. 21 м.
Вид битрейта : Постоянный
Битрейт : 224 Кбит/сек
Каналы : 2 канала
Расположение каналов : Front: L R
Частота : 48,0 КГц
Битовая глубина : 16 бит
Метод сжатия : С потерями
Размер потока : 131 Мбайт (7%)
Заголовок : English
Язык : English

Текст #1
Идентификатор : 5
Формат : UTF-8
Идентификатор кодека : S_TEXT/UTF8
Идентификатор кодека/Информация : UTF-8 Plain Text
Заголовок : Rus
Язык : Russian

Текст #2
Идентификатор : 6
Формат : UTF-8
Идентификатор кодека : S_TEXT/UTF8
Идентификатор кодека/Информация : UTF-8 Plain Text
Заголовок : Eng
Язык : English

Меню
00:00:00.000 : :CHAPTER01
00:04:06.160 : :CHAPTER02
00:12:27.000 : :CHAPTER03
00:21:15.060 : :CHAPTER04
00:29:22.050 : :CHAPTER05
00:42:18.060 : :CHAPTER06
00:51:41.000 : :CHAPTER07
00:59:12.000 : :CHAPTER08
01:05:19.000 : :CHAPTER09
01:08:36.000 : :CHAPTER10
01:11:54.000 : :CHAPTER11
01:18:08.000 : :CHAPTER12












Поделиться:




реклама партнёра


Вернуться к началу
 Профиль Отправить личное сообщение  
 
   Похожие торренты   Автор   Торрент   Размер 
В этой теме нет новых непрочитанных сообщений. Война миров / War of the Worlds [Фантастика,Триллер, 2005] HDRip, Dvo

salma3

0 | 3

1.46 ГБ

В этой теме нет новых непрочитанных сообщений. Война миров: Голиаф / War of the Worlds: Goliath [мультфильм, фантастика, боевик, 2012] HDRip, Avo

salma3

128 | 5

1.37 ГБ

В этой теме нет новых непрочитанных сообщений. Война миров Z / World War Z [ужасы, фантастика, боевик, триллер, драма, 2013] BDRip-AVC, Dub [Лицензия | EXTENDED]

Dracon

4 | 2

2.08 ГБ

В этой теме нет новых непрочитанных сообщений. Война миров Z / World War Z [ужасы, фантастика, боевик, триллер, драма, 2013] BDRip 1008p, Dub+Sub [Лицензия]

Dracon

9 | 1

3.75 ГБ

В этой теме нет новых непрочитанных сообщений. Война миров Z / World War Z [Ужасы, фантастика, боевик, триллер, драма, 2013] BDRip 720p, Dub+Sub [UNRATED | Лицензия]

hobbit1021

138 | 11

4.38 ГБ

В этой теме нет новых непрочитанных сообщений. Война миров Z / World War Z [ужасы, фантастика, боевик, триллер, приключения, 2013] BDRemux 1080p, Dub+5xAvo+Sub [Лицензия | Unrated Cut]

hobbit1021

28 | 7

49.21 ГБ

В этой теме нет новых непрочитанных сообщений. Новые миры / New Worlds [S01] [История, 2014] HDTVRip 720p [BaibaKo]

Dracon

49 | 4

4.01 ГБ


Начать новую тему Ответить на тему  [ 1 сообщение ] 




Для Мосгорсуда, Роскомнадзора и рекламодателей:: mosgorsud-torrent[собачка]yandex.ru