Торрент файл
скачать торрент магнет ссылка Добавлен: 15 янв 2012, 22:42
Размер: 2.71 ГБ
Сидеров: 2
Личеров: 5
Автор

СообщениеДобавлено: 15 янв 2012, 22:42 

Не в сети
Супермодератор
Аватара пользователя
Дата регистрации:
11 апр 2010, 18:10
Спасибо: 5802 / 7
Сообщения: 56779
Машина времени / The Time Machine

Перевод: Профессиональный (многоголосый, закадровый), cубтитры: английские (полные, отключаемые)
Формат: HDTVRip, MKV, H.264, AC3
Страна: США
Режиссер: Джордж Пэл
Жанр: фантастика
Продолжительность: 01:42:35
Год выпуска: 1960
В ролях: Род Тейлор, Алан Янг, Ивет Мимо, Себастьян Сабот, Том Хелмор, Уит Бисселл, Дорис Ллойд, Боб Бэрран, Ва Чанг, Пол Фрис
Описание: Экранизация одноименной повести Герберта Джорджа Уэллса.
1899 год. Джордж накануне нового тысячелетия демонстрирует друзьям свое изобретение — машину времени. Его рассказ о прошлом и будущем коллеги встречают скептически. Они не верят в путешествие во времени.
Когда друзья расходятся по домам отмечать новый год, Джордж садится за рычаги своего изобретения, чтобы подтвердить свою теорию. Так начинается его путешествие, которое окажется приключением целой жизни. Он переносит его из 1899 года во времена войн 20 столетия, а потом — в 802701 год. В этом отдаленном времени пассивным жителям земли Элоям грозит мрачное будущее, поскольку они поклоняются подземным существам с горящими глазами — Морлокам.
Будущее может спасти только незнакомец из прошлого.


Видео: 1280x720 (16:9), 23,976 fps, AVC, х264, High@L3.0 ~2938 kbps avg, 0.133 bit/pixel
Аудио#1:Русский: 48 kHz, AC-3, 2 ch, ~192.00 kbps avg [Профессиональный (многоголосый, закадровый)]
Аудио#2:Русский: 48 kHz, AC-3, 2 ch, ~192.00 kbps avg [Авторский (одноголосый)(Толбин Юрий)]
Аудио#3:Английский: 48 kHz, AC-3, 6 ch, ~384.00 kbps avg [Оригинал]

Автор РИПа:
Награды:
Оскар, 1961 год
Победитель (1):
Лучшие спецэффекты

Общее
Уникальный идентификатор : 190180303033632452238573711355572608653 (0x8F1364E019E084EB85DB037C01FB5E8D)
Полное имя : f:\the_time_machine_[tfile.ru].mkv
Формат : Matroska
Размер файла : 2,71 Гбайт
Продолжительность : 1 ч. 42 м.
Общий поток : 3781 Кбит/сек
Дата кодирования : UTC 2011-07-17 22:45:55
Программа кодирования : mkvmerge v4.6.0 ('Still Crazy After All These Years') сборка от Mar 10 2011 02:50:32
Библиотека кодирования : libebml v1.2.0 + libmatroska v1.1.0

Видео
Идентификатор : 1
Формат : AVC
Формат/Информация : Advanced Video Codec
Профиль формата : Main@L3.0
Параметр CABAC формата : Да
Параметр ReFrames формата : 1 кадр
Параметры GOP формата : M=1, N=12
Режим смешивания : Header stripping
Идентификатор кодека : V_MPEG4/ISO/AVC
Продолжительность : 1 ч. 42 м.
Битрейт : 2938 Кбит/сек
Ширина : 1280 пикс.
Высота : 720 пикс.
Соотношение сторон : 16:9
Частота кадров : 23,976 кадр/сек
Цветовое пространство : YUV
Подвыборка цветности : 4:2:0
Битовая глубина : 8 бит
Тип развёртки : Прогрессивная
Бит/(Пиксели*Кадры) : 0.133
Размер потока : 2,11 Гбайт (78%)
Язык : English

Аудио #1
Идентификатор : 2
Формат : AC-3
Формат/Информация : Audio Coding 3
Расширение режима : CM (complete main)
Режим смешивания : Header stripping
Идентификатор кодека : A_AC3
Продолжительность : 1 ч. 42 м.
Вид битрейта : Постоянный
Битрейт : 192 Кбит/сек
Каналы : 2 канала
Расположение каналов : Front: L R
Частота : 48,0 КГц
Битовая глубина : 16 бит
Метод сжатия : С потерями
Размер потока : 141 Мбайт (5%)
Заголовок : Russian MVO
Язык : Russian

Аудио #2
Идентификатор : 3
Формат : AC-3
Формат/Информация : Audio Coding 3
Расширение режима : CM (complete main)
Режим смешивания : Header stripping
Идентификатор кодека : A_AC3
Продолжительность : 1 ч. 42 м.
Вид битрейта : Постоянный
Битрейт : 192 Кбит/сек
Каналы : 2 канала
Расположение каналов : Front: L R
Частота : 48,0 КГц
Битовая глубина : 16 бит
Метод сжатия : С потерями
Размер потока : 141 Мбайт (5%)
Заголовок : Russian AVO (Толбин Юрий)
Язык : Russian

Аудио #3
Идентификатор : 4
Формат : AC-3
Формат/Информация : Audio Coding 3
Расширение режима : CM (complete main)
Режим смешивания : Header stripping
Идентификатор кодека : A_AC3
Продолжительность : 1 ч. 42 м.
Вид битрейта : Постоянный
Битрейт : 384 Кбит/сек
Каналы : 6 каналов
Расположение каналов : Front: L C R, Side: L R, LFE
Частота : 48,0 КГц
Битовая глубина : 16 бит
Метод сжатия : С потерями
Задержка видео : 9 мс.
Размер потока : 282 Мбайт (10%)
Заголовок : English
Язык : English

Текст
Идентификатор : 5
Формат : UTF-8
Идентификатор кодека : S_TEXT/UTF8
Идентификатор кодека/Информация : UTF-8 Plain Text
Заголовок : English
Язык : English












Поделиться:




реклама партнёра


Вернуться к началу
 Профиль Отправить личное сообщение  
 
   Похожие торренты   Автор   Торрент   Размер 
В этой теме нет новых непрочитанных сообщений. Машина времени / The Time Machine [фантастика, боевик, приключения, 2002] BDRip 1080p, Dub+Sub

salma3

284 | 18

5.76 ГБ

В этой теме нет новых непрочитанных сообщений. Машина времени в джакузи 2 / Hot Tub Time Machine 2 (Стив Пинк) [фантастика, комедия, 2015] HDRip, Dub [UNRATED | Лицензия]

slawa4155

1571 | 56

1.37 ГБ

В этой теме нет новых непрочитанных сообщений. Машина времени в джакузи 2 / Hot Tub Time Machine 2 (Стив Пинк) [фантастика, комедия, 2015] HDRip, dub [Чистый звук]

Dracon

590 | 18

1.37 ГБ

В этой теме нет новых непрочитанных сообщений. Машина времени в джакузи 2 / Hot Tub Time Machine 2 (Стив Пинк) [фантастика, комедия, 2015] BDRip 1080p, Dub [UNRATED | Лицензия]

slawa4155

554 | 56

8.15 ГБ

В этой теме нет новых непрочитанных сообщений. Машина времени в джакузи 2 / Hot Tub Time Machine 2 (Стив Пинк) [фантастика, комедия, 2015] BDRip 720p, Dub [Расширенная версия | лицензия]

Dracon

77 | 4

4.55 ГБ

В этой теме нет новых непрочитанных сообщений. Машина времени в джакузи 2 / Hot Tub Time Machine 2 (Стив Пинк) [фантастика, комедия, 2015] BDRip 1080p, dub [Расширенная версия | Чистый звук]

Dracon

26 | 16

7.91 ГБ

В этой теме нет новых непрочитанных сообщений. Машина смерти / Death Machine [Фантастика, 1994] DVD-9, Avo

salma3

75 | 13

7.55 ГБ


Начать новую тему Ответить на тему  [ 1 сообщение ] 




Для Мосгорсуда, Роскомнадзора и рекламодателей:: mosgorsud-torrent[собачка]yandex.ru