Торрент файл
скачать торрент магнет ссылка Добавлен: 15 янв 2012, 22:42
Размер: 1.37 ГБ
Сидеров: 7
Личеров: 7
Автор

СообщениеДобавлено: 15 янв 2012, 22:42 

Не в сети
Супермодератор
Аватара пользователя
Дата регистрации:
11 апр 2010, 18:10
Спасибо: 5802 / 7
Сообщения: 56779
Карлсон, который живёт на крыше / Vаrldens bаsta Karlsson


Перевод: Профессиональный (многоголосый, закадровый), cубтитры: отсутствуют
Формат: DVDRip, AVI, XviD, AC3
Страна: Швеция
Режиссер: Олле Хеллбом
Жанр: семейный
Продолжительность: 01:35:20
Год выпуска: 1974
В ролях: Ларс Сёдердал, Матс Викстрем, Кэтрин Вестерлунд, Стиг Оссиан Эриксон, Стаффан Халлерстам, Мария Селандер, Пер Кьеллин, Джейн «Лоффе» Карлссон

Описание: Экранизация повести-сказки Астрид Линдгрен "Малыш и Карлсон, который живёт на крыше".

Семилетний мечтатель Малыш чувствует себя очень одиноким, ведь у него совсем нет друга. И вот в один прекрасный день в распахнутое окно его комнаты влетает «обаятельный и в меру упитанный мужчина в самом расцвете сил» с маленьким пропеллером на спине и представляется как «лучший в мире Кар-л-с-сон». Малышу очень весело с новым другом, хотя и достается за его проделки. Но родители, старший брат и старшая сестра уверены, что Малыш просто выдумывает все эти истории про Карлсона...




Видео: 720x416 (1.73:1), 25 fps, XviD build 50 ~1919 kbps avg, 0.26 bit/pixel
Аудио: 48 kHz, AC3 Dolby Digital, 1/0 (C) ch, ~128.00 kbps avg




Общее
Полное имя: E:\Karlson.kotoryj.zhivet.na.kryshe.1974.DVDRip.avi
Формат: AVI
Формат/Информация: Audio Video Interleave
Размер файла: 1,37 Гбайт
Продолжительность: 1 ч. 35 м.
Общий поток: 2054 Кбит/сек
Программа кодирования: VirtualDubMod 1.5.4.1 (build 2178/release)
Библиотека кодирования: VirtualDubMod build 2178/release

Видео
Идентификатор: 0
Формат: MPEG-4 Visual
Профиль формата: Advanced Simple@L5
Параметр BVOP формата: Нет
Параметр QPel формата: Нет
Параметр GMC формата: Без точки перехода
Параметр матрицы формата: Выборочная
Идентификатор кодека: XVID
Идентификатор кодека/Подсказка: XviD
Продолжительность: 1 ч. 35 м.
Битрейт: 1919 Кбит/сек
Ширина: 720 пикс.
Высота: 416 пикс.
Соотношение сторон: 16:9
Частота кадров: 25,000 кадр/сек
Цветовое пространство: YUV
Подвыборка цветности: 4:2:0
Битовая глубина: 8 бит
Тип развёртки: Прогрессивная
Метод сжатия: С потерями
Бит/(Пиксели*Кадры): 0.256
Размер потока: 1,28 Гбайт (93%)
Библиотека кодирования: XviD 1.2.1 (UTC 2008-12-04)

Аудио
Идентификатор: 1
Формат: AC-3
Формат/Информация: Audio Coding 3
Расширение режима: CM (complete main)
Идентификатор кодека: 2000
Продолжительность: 1 ч. 35 м.
Вид битрейта: Постоянный
Битрейт: 128 Кбит/сек
Канал(ы): 1 канал
Расположение каналов: Front: C
Частота: 48,0 КГц
Битовая глубина: 16 бит
Метод сжатия: С потерями
Размер потока: 87,3 Мбайт (6%)
Выравнивание: Соединение по промежуткам
Продолжительность промежутка: 96мс. (2,40 видеокадров)
Время предзагрузки промежутка: 96 ms
Язык: Russian





Поделиться:




реклама партнёра


Вернуться к началу
 Профиль Отправить личное сообщение  
 
   Похожие торренты   Автор   Торрент   Размер 
В этой теме нет новых непрочитанных сообщений. Человек на крыше / Mannen på taket / Man on the Roof (Бу Видерберг / Bo Widerberg) [1976г., боевик, триллер, драма, криминал, экранизация, DVDRip AVC] MVO

Alfredovich

0 | 2

1.75 ГБ

В этой теме нет новых непрочитанных сообщений. Magnus Karlsson - Free Fall [Japanese Edition] [2013,Melodic Heavy Metal,MP3]

PriZraK

1 | 1

135.82 МБ

В этой теме нет новых непрочитанных сообщений. Здесь живёт дьявол / The Devil Lives Here / O Diabo Mora Aqui [ужасы, фэнтези, триллер, 2015] DVDRip, Avo

salma3

114 | 5

1.37 ГБ

В этой теме нет новых непрочитанных сообщений. Аист на крыше (2015) HD 720р

Dievas

61 | 35

730.4 МБ

В этой теме нет новых непрочитанных сообщений. Красный райдинг 1974 / Red Riding 1974 [детектив, 2009] BDRip 720p, Dvo+Sub

salma3

83 | 9

4.04 ГБ

В этой теме нет новых непрочитанных сообщений. Подстава / Framed (Фил Карлсон / Phil Karlson) [1975г., боевик, криминал, драма, SATRip] MVO

Alfredovich

6 | 4

1.45 ГБ

В этой теме нет новых непрочитанных сообщений. На крыше мира / Долгий путь на север / Tout en haut du monde (2015) BDRip [H.264/720p] (FR / RU, EN Sub)

marya111

1 | 2

3.27 ГБ


Начать новую тему Ответить на тему  [ 1 сообщение ] 




Для Мосгорсуда, Роскомнадзора и рекламодателей:: mosgorsud-torrent[собачка]yandex.ru