Торрент файл
скачать торрент магнет ссылка Добавлен: 15 янв 2012, 22:41
Размер: 2.21 ГБ
Сидеров: 8
Личеров: 6
Автор

СообщениеДобавлено: 15 янв 2012, 22:41 

Не в сети
Супермодератор
Аватара пользователя
Дата регистрации:
11 апр 2010, 18:10
Спасибо: 5799 / 7
Сообщения: 56779
Западный мир / Westworld

Перевод: Профессиональный (многоголосый, закадровый), cубтитры: английские (полные, отключаемые)
Формат: HDTVRip, MKV, H.264, AC3
Страна: США
Режиссер: Майкл Крайтон
Жанр: фантастика, боевик, триллер, вестерн
Продолжительность: 01:28:41
Год выпуска: 1973
В ролях: Юл Бриннер, Ричард Бенджамин, Джеймс Бролин, Норман Бартольд, Алан Оппенхаймер, Виктория Шоу, Дик Ван Пэттен, Линда Гей Скотт, Стив Фрэнкен, Майкл Т. Миклер
Описание: Западный Мир-это один из трех гигантских тематических парков, построенных на остатках американской природы. Есть еще Римский мир и Мир средних веков. За 1000 долларов в день туристы могут развлекаться в меру своих потребностей и аппетитов.
Роботов, населяющих эти парки развлечений, можно насиловать, убивать, любить, расстреливать, рубить мечом. С ними можно даже подружиться. Они никогда не дают сдачи и не испытывают эмоций.
Но вдруг в отлаженном механизме аттракциона что-то разлаживается. Компьютерная неполадка распространяется как чума. Роботы начинают восстание…


Видео: 1280x528 (2,40:1), 25 fps, MPEG4 AVC (х264), High@L4.1, ~2727 kbps avg, 0.161 bit/pixel
Аудио#1:Русский: 48 kHz, AC-3, 2 ch, ~192.00 kbps avg [Профессиональный (многоголосый, закадровый)(5ый канал)]
Аудио#2:Английский: 48 kHz, AC-3, 6 ch, ~384.00 kbps avg [Оригинал]
Аудио#3:Русский: 48 kHz, AC-3, 2 ch, ~192.00 kbps avg [Внешним файлом: Авторский (одноголосый)(Михалев Алексей)]

Автор РИПа:
В этом фильме впервые в полнометражном кино были использованы обработанные компьютером изображения (фрагменты, показанные с «точки зрения» робота). Для этого была разработана специальная программа оцифровки и обработки изображений. Создание 10-секундного эпизода потребовало 8 часов машинного времени.
Робот-Стрелок в исполнении Юла Бриннера был намерено сделан копией Криса Адамса, персонажа Бриннера из фильма «Великолепная семёрка», и носил тот же самый костюм.

Общее
Уникальный идентификатор : 234221868149355831675840470334777295534 (0xB0357DAEE4CAA3AF97793FCD55B382AE)
Полное имя : f:\Downloads\westworld_[tfile.ru]\westworld_[tfile.ru].mkv
Формат : Matroska
Размер файла : 2,09 Гбайт
Продолжительность : 1 ч. 28 м.
Общий поток : 3370 Кбит/сек
Название фильма : HDv_0day_Team
Дата кодирования : UTC 2011-07-30 11:59:49
Программа кодирования : mkvmerge v4.6.0 ('Still Crazy After All These Years') сборка от Mar 10 2011 02:50:32
Библиотека кодирования : libebml v1.2.0 + libmatroska v1.1.0

Видео
Идентификатор : 1
Формат : AVC
Формат/Информация : Advanced Video Codec
Профиль формата : High@L4.1
Параметр CABAC формата : Да
Параметр ReFrames формата : 1 кадр
Параметры GOP формата : M=1, N=12
Режим смешивания : Header stripping
Идентификатор кодека : V_MPEG4/ISO/AVC
Продолжительность : 1 ч. 28 м.
Битрейт : 2727 Кбит/сек
Ширина : 1280 пикс.
Высота : 528 пикс.
Соотношение сторон : 2,40:1
Частота кадров : 25,000 кадр/сек
Цветовое пространство : YUV
Подвыборка цветности : 4:2:0
Битовая глубина : 8 бит
Тип развёртки : Прогрессивная
Бит/(Пиксели*Кадры) : 0.161
Размер потока : 1,69 Гбайт (81%)
Заголовок : Westworld
Язык : English

Аудио #1
Идентификатор : 2
Формат : AC-3
Формат/Информация : Audio Coding 3
Расширение режима : CM (complete main)
Режим смешивания : Header stripping
Идентификатор кодека : A_AC3
Продолжительность : 1 ч. 28 м.
Вид битрейта : Постоянный
Битрейт : 192 Кбит/сек
Каналы : 2 канала
Расположение каналов : Front: L R
Частота : 48,0 КГц
Битовая глубина : 16 бит
Метод сжатия : С потерями
Размер потока : 122 Мбайт (6%)
Заголовок : MVO
Язык : Russian

Аудио #2
Идентификатор : 3
Формат : AC-3
Формат/Информация : Audio Coding 3
Расширение режима : CM (complete main)
Режим смешивания : Header stripping
Идентификатор кодека : A_AC3
Продолжительность : 1 ч. 28 м.
Вид битрейта : Постоянный
Битрейт : 384 Кбит/сек
Каналы : 6 каналов
Расположение каналов : Front: L C R, Side: L R, LFE
Частота : 48,0 КГц
Битовая глубина : 16 бит
Метод сжатия : С потерями
Размер потока : 244 Мбайт (11%)
Язык : English

Текст
Идентификатор : 4
Формат : UTF-8
Идентификатор кодека : S_TEXT/UTF8
Идентификатор кодека/Информация : UTF-8 Plain Text
Язык : English














Поделиться:




реклама партнёра


Вернуться к началу
 Профиль Отправить личное сообщение  
 
   Похожие торренты   Автор   Торрент   Размер 
В этой теме нет новых непрочитанных сообщений. Западный мир / Westworld [Фантастика, боевик, вестерн, 1973] BDRip 720p, Mvo+Avo+Sub

salma3

55 | 3

3.71 ГБ

В этой теме нет новых непрочитанных сообщений. Западный мир / Westworld [Фантастика, боевик, вестерн, 1973] BDRemux 1080i, Mvo+Avo+Sub

salma3

19 | 4

14.1 ГБ

В этой теме нет новых непрочитанных сообщений. Последний корабль / The Last Ship [01х01] (Майкл Кэтлман, Джек Бендер, Пол Холахан) [2014, фантастика, боевик, триллер, драма, HDTVRip | Kerob]

Nickolas3435

216 | 7

551.39 МБ

В этой теме нет новых непрочитанных сообщений. Западный фронт / Seoboojeonsun [Боевик, драма, комедия, военный, 2015] WEB-DLRip, Dvo

salma3

177 | 3

1.46 ГБ

В этой теме нет новых непрочитанных сообщений. Ответный удар / Strike Back [S05] (Майкл Дж. Бассет, Джулиан Холмс) [2015, Боевик, триллер, драма, HDTVRip 1080p | Novamedia]

Nickolas3435

30 | 18

16.75 ГБ

В этой теме нет новых непрочитанных сообщений. Апачи / Apachen [Вестерн, приключения, 1973] Blu-ray Custom 1080i, Dub+Sub

salma3

54 | 25

22.48 ГБ

В этой теме нет новых непрочитанных сообщений. Последний корабль / The Last Ship [01х01-07 из 10] (Майкл Кэтлман, Джек Бендер, Пол Холахан) [2014, фантастика, боевик, триллер, драма, WEB-DLRip | LostFilm]

Nickolas3435

128 | 68

4.24 ГБ


Начать новую тему Ответить на тему  [ 1 сообщение ] 




Для Мосгорсуда, Роскомнадзора и рекламодателей:: mosgorsud-torrent[собачка]yandex.ru