Торрент файл
скачать торрент магнет ссылка Добавлен: 15 янв 2012, 22:39
Размер: 743.23 МБ
Сидеров: 13
Личеров: 4
Автор

СообщениеДобавлено: 15 янв 2012, 22:39 

Не в сети
Супермодератор
Аватара пользователя
Дата регистрации:
11 апр 2010, 18:10
Спасибо: 5803 / 7
Сообщения: 56779
Мальтийский сокол / The Maltese Falcon

Перевод: Профессиональный (полное дублирование), cубтитры: отсутствуют

Формат: LowHDRip, AVI, XviD, MP3

Страна: США

Режиссер: Джон Хьюстон

Жанр: фильм-нуар, криминал, детектив

Продолжительность: 01:40:31

Год выпуска: 1941

В ролях: Хамфри Богарт, Мэри Астор, Глэдис Джордж, Петер Лорре, Бартон МакЛэйн, Ли Патрик, Сидни Гринстрит, Уорд Бонд, Джером Кауэн, Элиша Кук мл.

Описание: Частный детектив Сэм Спэйд начинает смертельную охоту за таинственно исчезнувшей бесценной статуэткой «мальтийского сокола».

Эта реликвия пришла в современный мир из глубины веков и символизирует собою возможность управления людьми, народами, странами. Человечеством, в конце концов. Более-менее подкованному человеку известно, что миром правят секретные ордены и организации, а поэтому интерес к этой теме вечен и непререкаем.


[/field]

Видео: 640x464 (1.38:1), 23.976 fps, XviD build 50 ~896 kbps avg, 0.13 bit/pixel
Аудио: 48 kHz, MPEG Layer 3, 2 ch, ~128.00 kbps avg

General
Complete name: E:\Загрузки\Мальтийский сокол_1941_HDRip.avi
Format: AVI
Format/Info: Audio Video Interleave
File size: 743 MiB
Duration: 1h 40mn
Overall bit rate: 1 034 Kbps
Writing application: VirtualDubMod 1.5.10.2 (build 2540/release)
Writing library: VirtualDubMod build 2540/release

Video
ID: 0
Format: MPEG-4 Visual
Format profile: Advanced Simple@L5
Format settings, BVOP: 1
Format settings, QPel: No
Format settings, GMC: No warppoints
Format settings, Matrix: Default (MPEG)
Codec ID: XVID
Codec ID/Hint: XviD
Duration: 1h 40mn
Bit rate: 896 Kbps
Width: 640 pixels
Height: 464 pixels
Display aspect ratio: 1.379
Frame rate: 23.976 fps
Color space: YUV
Chroma subsampling: 4:2:0
Bit depth: 8 bits
Scan type: Progressive
Compression mode: Lossy
Bits/(Pixel*Frame): 0.126
Stream size: 644 MiB (87%)
Writing library: XviD 1.2.1 (UTC 2008-12-04)

Audio
ID: 1
Format: MPEG Audio
Format version: Version 1
Format profile: Layer 3
Codec ID: 55
Codec ID/Hint: MP3
Duration: 1h 40mn
Bit rate mode: Constant
Bit rate: 128 Kbps
Channel(s): 2 channels
Sampling rate: 48.0 KHz
Compression mode: Lossy
Stream size: 92.0 MiB (12%)
Alignment: Aligned on interleaves
Interleave, duration: 42 ms (1.00 video frame)
Interleave, preload duration: 504 ms
Writing library: LAME3.98r
Encoding settings: -m s -V 4 -q 2








Поделиться:




реклама партнёра


Вернуться к началу
 Профиль Отправить личное сообщение  
 
   Похожие торренты   Автор   Торрент   Размер 
В этой теме нет новых непрочитанных сообщений. 1941 / 1941 [боевик, комедия, военный, 1979] Blu-Ray, Dub+Sub

salma3

3 | 3

38.85 ГБ

В этой теме нет новых непрочитанных сообщений. Под прицелом [01-16 из 16] [Остросюжетный фильм, детектив, криминал, 2013] SATRip

Dracon

45 | 8

9.81 ГБ

В этой теме нет новых непрочитанных сообщений. Охота [01-04 из 04] [Остросюжетный фильм, детектив, криминал, 2014] WEB-DL 1080p

Dracon

106 | 7

5.32 ГБ

В этой теме нет новых непрочитанных сообщений. Отель «Нуар» / Hotel Noir (Себастьян Гутьеррес / Sebastian Gutierrez) [2012 г., драма, криминал, HDRip-AVC] AVO

Alfredovich

10 | 5

2.18 ГБ

В этой теме нет новых непрочитанных сообщений. Джек Тейлор / Jack Taylor: The Guards [1-6 серии из 6] (Стюарт Орм / Stuart Orme) [2010-2011г.г., детектив, нуар, HDTVRip] mvo

Alfredovich

7 | 2

4.9 ГБ

В этой теме нет новых непрочитанных сообщений. Дядя Джон / Uncle John [Триллер, драма, мелодрама, криминал, детектив, 2015] WEB-DLRip, dvo

Dracon

266 | 7

1.37 ГБ

В этой теме нет новых непрочитанных сообщений. Замкнутая цепь / Closed Circuit (Джон Краули) [триллер, драма, криминал, детектив, 2013] HDRip, Mvo

Dracon

426 | 11

1.46 ГБ


Начать новую тему Ответить на тему  [ 1 сообщение ] 




Для Мосгорсуда, Роскомнадзора и рекламодателей:: mosgorsud-torrent[собачка]yandex.ru