Торрент файл
скачать торрент магнет ссылка Добавлен: 15 янв 2012, 22:39
Размер: 1.37 ГБ
Сидеров: 4
Личеров: 6
Автор

СообщениеДобавлено: 15 янв 2012, 22:39 

Не в сети
Супермодератор
Аватара пользователя
Дата регистрации:
11 апр 2010, 18:10
Спасибо: 5801 / 7
Сообщения: 56779
Песня Юга / Song of the South

Перевод: Профессиональный (многоголосый, закадровый)
Формат: VHSRip, AVI, XviD, MP3
Страна: США
Режиссер: Харви Фостер, Уилфред Джексон
Жанр:семейный, музыка, мультфильм
Продолжительность: 01:27:07
Год выпуска: 1946

В ролях: Рут Уоррик, Бобби Дрисколл, Джеймс Бескетт, Луана Паттен, Люсиль Уотсон, Хэтти МакДэниел, Эрик Рольф, Гленн Лиди, Мэри Филд, Анита Браун

Описание: Фильм о приключениях маленького Джонни, приехавшего погостить на плантацию своей бабушки. Добрый дядюшка Римус придумывает и рассказывает Джонни и его друзьям забавные истории про Братца Кролика и других обитателей сказочной страны, которая оказывается совсем неподалеку. Эти занимательные истории очень помогают мальчику привыкнуть к новой жизни и обрести новых друзей.

[/field]

Видео: 640x480 (1.33:1), 25 fps, XviD Final 1.0.3 (build 37) ~2096 kbps avg, 0.27 bit/pixel
Аудио: 48 kHz, MPEG Layer 3, 2 ch, ~135.22 kbps avg

Общее
Полное имя: C:\Documents and Settings\Admin\Рабочий стол\Downloads\Torrents\Песня юга.avi
Формат: AVI
Формат/Информация: Audio Video Interleave
Размер файла: 1,37 Гбайт
Продолжительность: 1 ч. 27 м.
Общий поток: 2245 Кбит/сек
Программа кодирования: VirtualDubMod 1.5.10.2 (build 2540/release)
Библиотека кодирования: VirtualDubMod build 2540/release

Видео
Идентификатор: 0
Формат: MPEG-4 Visual
Профиль формата: Advanced Simple@L5
Параметр BVOP формата: 2
Параметр QPel формата: Нет
Параметр GMC формата: Без точки перехода
Параметр матрицы формата: Default (MPEG)
Режим смешивания: Сжатый битовый поток
Идентификатор кодека: XVID
Идентификатор кодека/Подсказка: XviD
Продолжительность: 1 ч. 27 м.
Битрейт: 2097 Кбит/сек
Ширина: 640 пикс.
Высота: 480 пикс.
Соотношение сторон: 4:3
Частота кадров: 25,000 кадр/сек
Цветовое пространство: YUV
Подвыборка цветности: 4:2:0
Битовая глубина: 8 бит
Тип развёртки: Прогрессивная
Метод сжатия: С потерями
Бит/(Пиксели*Кадры): 0.273
Размер потока: 1,28 Гбайт (93%)
Библиотека кодирования: XviD 1.0.3 (UTC 2004-12-20)

Аудио
Идентификатор: 1
Формат: MPEG Audio
Версия формата: Version 1
Профиль формата: Layer 3
Режим: Joint stereo
Расширение режима: MS Stereo
Идентификатор кодека: 55
Идентификатор кодека/Подсказка: MP3
Продолжительность: 1 ч. 27 м.
Вид битрейта: Переменный
Битрейт: 135 Кбит/сек
Номинальный битрейт: 128 Кбит/сек
Каналы: 2 канала
Частота: 48,0 КГц
Метод сжатия: С потерями
Размер потока: 84,3 Мбайт (6%)
Выравнивание: Соединение по промежуткам
Продолжительность промежутка: 24мс. (0,60 видеокадр)
Время предзагрузки промежутка: 494 ms
Библиотека кодирования: LAME3.90.
Настройки программы: -m j -V 4 -q 2 -lowpass 17.6 --abr 128







Поделиться:




реклама партнёра


Вернуться к началу
 Профиль Отправить личное сообщение  
 
   Похожие торренты   Автор   Торрент   Размер 
В этой теме нет новых непрочитанных сообщений. Песнь моря / Song of the Sea (Томм Мур) [мультфильм, фэнтези, семейный, 2014] WebRip, Mvo

Dracon

835 | 19

1.43 ГБ

В этой теме нет новых непрочитанных сообщений. Песня / The Song (Ричард Рэмси) [драма, мелодрама, 2014] WEB-DLRip, Mvo [iTunes]

Dracon

36 | 3

2.05 ГБ

В этой теме нет новых непрочитанных сообщений. Песня / The Song (Ричард Рэмси) [драма, мелодрама, 2014] WEB-DL 1080p, Mvo [iTunes]

Dracon

12 | 4

4.13 ГБ

В этой теме нет новых непрочитанных сообщений. Песня / The Song (Ричард Рэмси) [драма, мелодрама, 2014] WEB-DLRip, Mvo [iTunes]

Dracon

145 | 8

1.46 ГБ

В этой теме нет новых непрочитанных сообщений. Элвин и бурундуки: Грандиозное бурундуключение / Alvin and the Chipmunks: The Road Chip [мультфильм, фэнтези, комедия, приключения, семейный, музыка, 2015] HDRip, Dub [iTunes]

salma3

10565 | 1034

1.37 ГБ

В этой теме нет новых непрочитанных сообщений. Элвин и бурундуки: Грандиозное бурундуключение / Alvin and the Chipmunks: The Road Chip [мультфильм, фэнтези, комедия, приключения, семейный, музыка, 2015] BDRemux 1080p, Dub+Sub [iTunes]

salma3

11 | 6

22.55 ГБ

В этой теме нет новых непрочитанных сообщений. Песня года 2014 [часть 1, 2] (ВГТРК) [Музыка, 2014] HDTVRip

Dracon

1 | 2

3.82 ГБ


Начать новую тему Ответить на тему  [ 1 сообщение ] 




Для Мосгорсуда, Роскомнадзора и рекламодателей:: mosgorsud-torrent[собачка]yandex.ru