Торрент файл
скачать торрент магнет ссылка Добавлен: 15 янв 2012, 22:37
Размер: 743.89 МБ
Сидеров: 11
Личеров: 6
Автор

СообщениеДобавлено: 15 янв 2012, 22:37 

Не в сети
Супермодератор
Аватара пользователя
Дата регистрации:
11 апр 2010, 18:10
Спасибо: 5802 / 7
Сообщения: 56779
Фантомас против Скотланд-Ярда / Fantomas contre Scotland Yard

Перевод: Профессиональный (полное дублирование), cубтитры:отсутствуют

Формат: LowHDRip, AVI, XviD, MP3

Страна: Франция, Италия

Режиссер: Андре Юнебель

Жанр: комедия, криминал, приключения

Продолжительность: 01:40:58

Год выпуска: 1967

В ролях: Жан Маре, Луи де Фюнес, Милен Демонжо, Франсуаза Кристоф, Жан-Роже Коссимон, Робер Дальбан, Андре Дюма, Макс Монтавон, Рита Ренуар, Жан Озенн, Анри Серр, Жак Динам, Анри Атталь, Доминик Зарди

Описание: На этот раз злодей с тысячью лицами решает обложить данью богатейших людей мира, а взамен гарантирует им жизнь. Комиссар Жюв со своими верными друзьями, Фандором и Элен, прибывает в шотландский замок для того, чтобы встать на защиту его владельца и снова попытаться поймать Фантомаса.

[/field]

Видео: 672x288 (2.33:1), 24.000 fps, XviD build 50 ~892 kbps avg, 0.19 bit/pixel
Аудио: 48 kHz, MPEG Layer 3, 2 ch, ~128.00 kbps avg

*Махаражда Кемпуры на совещании у лорда Макрашли говорит на чистом русском языке (00:13:28, 00:14:34). При показе в Советском Союзе этот эпизод, как и некоторые другие, был вырезан из фильма (видимо, из политических соображений), поэтому сегодня в официальной советской дублированной версии можно встретить куски с синхронным закадровым переводом. Этот же актёр играет во второй части трилогии «Фантомас разбушевался» постояльца в отеле, который тоже говорит по-русски.

*После «Фантомаса против Скотленд-Ярда» создатели фильма планировали снять продолжение, к тому же примечательно, что действие четвёртого фильма должно было происходить в Москве. Однако возникли некоторые проблемы с финансированием, и съёмки четвёртой части так и не состоялись. Данный факт описывался в передаче «Двое против Фантомаса. Де Фюнес — Кенигсон», вышедшей на телеканале РТР-Планета 25 марта 2010 года.

*«Лицо» Уолтера Брауна — это «маска» лорда Шелтона, подставного покупателя драгоценностей из фильма «Фантомас», а «Лицо» гангстера Джузеппе — маска маркиза де Растелли из фильма «Фантомас разбушевался». Всех этих персонажей играет Жан Маре.

*«Шотландский» замок лорда МакРэшли на самом деле находится на юго-западе Франции - это замок Роктайяд (Château de Roquetaillade) в деревне Мазэр примерно в 55 километрах к юго-востоку от Бордо. Кроме «Фантомаса», в замке также снимался фильм Братство волка.
General
Complete name: E:\Загрузки\Fantomas.VS.Scotland.Yard.1967.HDRip.avi
Format: AVI
Format/Info: Audio Video Interleave
File size: 744 MiB
Duration: 1h 40mn
Overall bit rate: 1 030 Kbps
Writing application: VirtualDubMod 1.5.10.2 (build 2540/release)
Writing library: VirtualDubMod build 2540/release

Video
ID: 0
Format: MPEG-4 Visual
Format profile: Advanced Simple@L5
Format settings, BVOP: 1
Format settings, QPel: No
Format settings, GMC: No warppoints
Format settings, Matrix: Custom
Codec ID: XVID
Codec ID/Hint: XviD
Duration: 1h 40mn
Bit rate: 893 Kbps
Width: 672 pixels
Height: 288 pixels
Display aspect ratio: 2.35:1
Frame rate: 24.000 fps
Color space: YUV
Chroma subsampling: 4:2:0
Bit depth: 8 bits
Scan type: Progressive
Compression mode: Lossy
Bits/(Pixel*Frame): 0.192
Stream size: 645 MiB (87%)
Writing library: XviD 1.2.1 (UTC 2008-12-04)

Audio
ID: 1
Format: MPEG Audio
Format version: Version 1
Format profile: Layer 3
Codec ID: 55
Codec ID/Hint: MP3
Duration: 1h 40mn
Bit rate mode: Constant
Bit rate: 128 Kbps
Channel(s): 2 channels
Sampling rate: 48.0 KHz
Compression mode: Lossy
Stream size: 92.5 MiB (12%)
Alignment: Aligned on interleaves
Interleave, duration: 42 ms (1.00 video frame)
Interleave, preload duration: 504 ms
Writing library: LAME3.98r
Encoding settings: -m s -V 4 -q 2 -lowpass 17 -b 128









Поделиться:




реклама партнёра


Вернуться к началу
 Профиль Отправить личное сообщение  
 
   Похожие торренты   Автор   Торрент   Размер 
В этой теме нет новых непрочитанных сообщений. Ни за, ни против / Ni Pour, Ni Contre [криминал, 2003] DVDRip, Mvo

salma3

31 | 4

1.45 ГБ

В этой теме нет новых непрочитанных сообщений. Всё или ничего / The Longest Yard [Комедия, спорт, криминал, 2005] WEB-DL 720p, Dub+Mvo+Sub

salma3

59 | 7

4.29 ГБ

В этой теме нет новых непрочитанных сообщений. Вор / Le voleur [драма, комедия, криминал, 1967] DVDRip, Dvo

salma3

31 | 5

1.46 ГБ

В этой теме нет новых непрочитанных сообщений. Убей меня скорей, мне холодно! / Fai in fretta ad uccidermi... ho freddo! [комедия, криминал, 1967] SATRip, Mvo

salma3

16 | 2

1.34 ГБ

В этой теме нет новых непрочитанных сообщений. Стар против Сил Зла / Star vs the Forces of Evil [s01] (Фантастика, комедия, приключения, мультсериал, 2015) WEB-DLRip от ExKinoRay | L2

marya111

0 | 0

3.5 ГБ

В этой теме нет новых непрочитанных сообщений. Кавказская пленница или новые приключения Шурика [Комедийная мелодрама, приключения, 1967] BDRip [КПК]

salma3

62 | 6

360.77 МБ

В этой теме нет новых непрочитанных сообщений. Бонни и Клайд против Дракулы / Bonnie & Clyde vs. Dracula [ужасы, комедия, боевик, криминал, 2008] DVDRip, Avo

salma3

35 | 1

728.88 МБ


Начать новую тему Ответить на тему  [ 1 сообщение ] 




Для Мосгорсуда, Роскомнадзора и рекламодателей:: mosgorsud-torrent[собачка]yandex.ru