Торрент файл
скачать торрент магнет ссылка Добавлен: 15 янв 2012, 22:36
Размер: 2.09 ГБ
Сидеров: 4
Личеров: 9
Автор

СообщениеДобавлено: 15 янв 2012, 22:36 

Не в сети
Супермодератор
Аватара пользователя
Дата регистрации:
11 апр 2010, 18:10
Спасибо: 5802 / 7
Сообщения: 56779
Путешествие к центру Земли / Journey to the Center of the Earth

Перевод: Профессиональный (многоголосый, закадровый), cубтитры: отсутствуют
Формат: HDTVRip, MKV, H.264, AC3
Страна: США
Режиссер: Генри Левин
Жанр: фантастика, приключения, семейный
Продолжительность: 02:04:07
Год выпуска: 1959
В ролях: Пэт Бун, Джеймс Мейсон, Арлин Даль, Дайан Бэйкер, Тэйер Дэвид, Питер Ронсон, Боб Адлер, Алан Напье, Мэри Брэйди, Алан Кайу
Описание: 1880 год, Эдинбург, Англия. Профессор геологии Линденбрук обнаруживает в образцах лавы из окрестностей вулкана на севере Исландии остатки организмов, исчезнувших с лица Земли тысячи лет назад.
Вывод-под земной корой могла сохраниться доисторическая жизнь! Линденбрук готовит экспедицию к центру Земли, которая должна стартовать через жерло вулкана, а финансирование берёт на себя профессор Гётеборг.
Вскоре он трагически погибает, но его красавица-жена продолжает дело мужа и присоединяется к ученым…


Видео: 1280x544 (2,35:1), 25 fps, MPEG4 AVC (х264), High@L4.1 ~1840 kbps avg, 0.106 bit/pixel
Аудио#1:Русский: 48 kHz, AC-3, 4 ch, ~384.00 kbps avg [Профессиональный (многоголосый, закадровый)]
Аудио#3:Английский: 48 kHz, AC-3, 2 ch, ~192.00 kbps avg [Оригинал]


Автор РИПа:
Общее
Уникальный идентификатор : 228119326415342581451483721332080764019 (0xAB9E2F2559C324B58FB762F3ED3FE473)
Полное имя : f:\Downloads\journey_to_the_center_of_the_earth_[tfile.ru].mkv
Формат : Matroska
Размер файла : 2,09 Гбайт
Продолжительность : 2 ч. 4 м.
Общий поток : 2415 Кбит/сек
Дата кодирования : UTC 2011-08-15 12:00:51
Программа кодирования : mkvmerge v4.6.0 ('Still Crazy After All These Years') сборка от Mar 10 2011 02:50:32
Библиотека кодирования : libebml v1.2.0 + libmatroska v1.1.0

Видео
Идентификатор : 1
Формат : AVC
Формат/Информация : Advanced Video Codec
Профиль формата : High@L4.1
Параметр CABAC формата : Да
Параметр ReFrames формата : 3 кадра
Режим смешивания : Header stripping
Идентификатор кодека : V_MPEG4/ISO/AVC
Продолжительность : 2 ч. 4 м.
Битрейт : 1840 Кбит/сек
Ширина : 1280 пикс.
Высота : 544 пикс.
Соотношение сторон : 2,35:1
Режим частоты кадров : Переменный
Частота кадров : 25,000 кадр/сек
Цветовое пространство : YUV
Подвыборка цветности : 4:2:0
Битовая глубина : 8 бит
Тип развёртки : Прогрессивная
Бит/(Пиксели*Кадры) : 0.106
Размер потока : 1,55 Гбайт (74%)
Библиотека кодирования : x264 core 116 r2019M 9cc407d
Настройки программы : cabac=1 / ref=3 / deblock=1:0:0 / analyse=0x3:0x133 / me=hex / subme=7 / psy=1 / psy_rd=1.00:0.20 / mixed_ref=1 / me_range=16 / chroma_me=1 / trellis=1 / 8x8dct=1 / cqm=0 / deadzone=21,11 / fast_pskip=1 / chroma_qp_offset=-3 / threads=7 / sliced_threads=0 / nr=0 / decimate=1 / interlaced=0 / bluray_compat=0 / constrained_intra=0 / bframes=3 / b_pyramid=1 / b_adapt=2 / b_bias=0 / direct=3 / weightb=1 / open_gop=0 / weightp=2 / keyint=250 / keyint_min=25 / scenecut=40 / intra_refresh=0 / rc=2pass / mbtree=0 / bitrate=1840 / ratetol=1.0 / qcomp=0.60 / qpmin=10 / qpmax=51 / qpstep=4 / cplxblur=20.0 / qblur=0.5 / ip_ratio=1.40 / pb_ratio=1.30 / aq=1:1.00
Язык : Russian

Аудио #1
Идентификатор : 2
Формат : AC-3
Формат/Информация : Audio Coding 3
Расширение режима : CM (complete main)
Режим смешивания : Header stripping
Идентификатор кодека : A_AC3
Продолжительность : 2 ч. 4 м.
Вид битрейта : Постоянный
Битрейт : 384 Кбит/сек
Каналы : 4 канала
Расположение каналов : Front: L C R, LFE
Частота : 48,0 КГц
Битовая глубина : 16 бит
Метод сжатия : С потерями
Размер потока : 341 Мбайт (16%)
Заголовок : MVO
Язык : Russian

Аудио #2
Идентификатор : 3
Формат : AC-3
Формат/Информация : Audio Coding 3
Расширение режима : CM (complete main)
Режим смешивания : Header stripping
Идентификатор кодека : A_AC3
Продолжительность : 2 ч. 4 м.
Вид битрейта : Постоянный
Битрейт : 192 Кбит/сек
Каналы : 2 канала
Расположение каналов : Front: L R
Частота : 48,0 КГц
Битовая глубина : 16 бит
Метод сжатия : С потерями
Размер потока : 170 Мбайт (8%)
Язык : English













Поделиться:




реклама партнёра


Вернуться к началу
 Профиль Отправить личное сообщение  
 
   Похожие торренты   Автор   Торрент   Размер 
В этой теме нет новых непрочитанных сообщений. Нацисты в центре Земли / Nazis at the Center of the Earth [фантастика, боевик, триллер, приключения, 2012] BDRip-AVC, Mvo

salma3

107 | 15

1.45 ГБ

В этой теме нет новых непрочитанных сообщений. Нацисты в центре Земли / Nazis at the Center of the Earth [фантастика, боевик, триллер, приключения, 2012] BDRemux 1080p, Mvo

salma3

116 | 41

10.89 ГБ

В этой теме нет новых непрочитанных сообщений. Нацисты в центре Земли / Nazis at the Center of the Earth [фантастика, боевик, триллер, приключения, 2012] BDRip 720p, Mvo

salma3

50 | 6

3.93 ГБ

В этой теме нет новых непрочитанных сообщений. Последний час Земли / Earth's Final Hours [Фантастика, 2011] DVD5, Mvo [Лицензия]

salma3

41 | 14

4.01 ГБ

В этой теме нет новых непрочитанных сообщений. Внеземное эхо / Earth to Echo [Фантастика, Приключения, Семейный, 2014] HDRip, dvo

Dracon

17 | 3

1.37 ГБ

В этой теме нет новых непрочитанных сообщений. Внеземное эхо / Earth to Echo [Фантастика, Приключения, Семейный, 2014] BDRip 720p, dvo

Dracon

4 | 2

6.09 ГБ

В этой теме нет новых непрочитанных сообщений. Хоббит: Нежданное путешествие (Расширенная Версия) / The Hobbit: An Unexpected Journey (Extended Cut) (Питер Джексон) [2012, Фэнтези, приключения, экранизация, BDRip-AVC 1080p] [DD5.1] [MVO] [ Дублированный + Subs Rus]

Nikolai.Baranov

13 | 2

8.61 ГБ


Начать новую тему Ответить на тему  [ 1 сообщение ] 




Для Мосгорсуда, Роскомнадзора и рекламодателей:: mosgorsud-torrent[собачка]yandex.ru