Торрент файл
скачать торрент магнет ссылка Добавлен: 15 янв 2012, 22:35
Размер: 2.13 ГБ
Сидеров: 86
Личеров: 11
Автор

СообщениеДобавлено: 15 янв 2012, 22:35 

Не в сети
Супермодератор
Аватара пользователя
Дата регистрации:
11 апр 2010, 18:10
Спасибо: 5799 / 7
Сообщения: 56779
2001 год: Космическая одиссея / 2001: A Space Odyssey

Перевод: Профессиональный (полное дублирование), cубтитры: Русские, Английские (полные, отключаемые)
Формат: HDRip, MKV, H.264, MP3
Страна: США, Великобритания
Режиссер: Стэнли Кубрик
Жанр: фантастика, детектив, приключения
Продолжительность: 02:28:52
Год выпуска: 1968
В ролях: Кир Дулли, Гэри Локвуд, Уильям Сильвестр, Дэниэл Риктер, Леонард Росситер, Маргарет Тайзэк, Роберт Битти, Шон Салливан, Дуглас Рэйн, Фрэнк Миллер
Описание: Кто мы? Какое место мы занимаем во Вселенной? Эти вопросы стоят перед героями фильма. Экипаж космического корабля С. С. Дискавери-капитаны Дэйв Боумэн, Фрэнк Пул и их бортовой компьютер ХЭЛ-9000-должны исследовать район галактики и понять, почему инопланетяне следят за Землей. На этом пути их ждет множество неожиданных открытий…

Видео: 1280x576 (2,222), 23,976 fps, MPEG4 AVC (х264), High@L4.1 ~1352 kbps avg, 0.076 bit/pixe
Аудио#1:Русский: 48 kHz, MPEG Layer 3, 2 ch, ~256.00 kbps avg [Профессиональный (полное дублирование)]
Аудио#2:Английский: 48 kHz, AC-3, 6 ch, ~448.00 kbps avg [Оригинал]


Автор РИПа:
Награды:

Оскар, 1969 год
Победитель (1):
Лучшие визуальные эффекты
Номинации (3):
Лучший режиссер (Стэнли Кубрик)
Лучший оригинальный сценарий
Лучшие декорации

Британская академия, 1969 год
Победитель (3):
Лучшая работа оператора
Лучшая работа художника
Лучший саундтрек
Номинации (2):
Лучший фильм
Премия объединенных наций

ММКФ, 1969 год
Номинации (1):
Золотой приз

Общее
Уникальный идентификатор : 186247615968579965985892547333194005235 (0x8C1DFC6EDA0708F8AEC454F778243AF3)
Полное имя : f:\Downloads\2001_a_space_odyssey_[tfile.ru].mkv
Формат : Matroska
Размер файла : 2,13 Гбайт
Продолжительность : 2 ч. 28 м.
Общий поток : 2048 Кбит/сек
Название фильма : 2001.A.Space.Odyssey.1968.720p.BDrip_arestarh
Дата кодирования : UTC 2011-08-19 10:02:44
Программа кодирования : mkvmerge v4.6.0 ('Still Crazy After All These Years') сборка от Mar 10 2011 02:50:32
Библиотека кодирования : libebml v1.2.0 + libmatroska v1.1.0

Видео
Идентификатор : 1
Формат : AVC
Формат/Информация : Advanced Video Codec
Профиль формата : High@L4.1
Параметр CABAC формата : Да
Параметр ReFrames формата : 3 кадра
Режим смешивания : Header stripping
Идентификатор кодека : V_MPEG4/ISO/AVC
Продолжительность : 2 ч. 28 м.
Битрейт : 1352 Кбит/сек
Ширина : 1280 пикс.
Высота : 576 пикс.
Соотношение сторон : 2,222
Режим частоты кадров : Переменный
Частота кадров : 23,976 кадр/сек
Цветовое пространство : YUV
Подвыборка цветности : 4:2:0
Битовая глубина : 8 бит
Тип развёртки : Прогрессивная
Бит/(Пиксели*Кадры) : 0.076
Размер потока : 1,36 Гбайт (64%)
Библиотека кодирования : x264 core 116 r2019M 9cc407d
Настройки программы : cabac=1 / ref=3 / deblock=1:0:0 / analyse=0x3:0x133 / me=hex / subme=7 / psy=1 / psy_rd=1.00:0.20 / mixed_ref=1 / me_range=16 / chroma_me=1 / trellis=1 / 8x8dct=1 / cqm=0 / deadzone=21,11 / fast_pskip=1 / chroma_qp_offset=-3 / threads=7 / sliced_threads=0 / nr=0 / decimate=1 / interlaced=0 / bluray_compat=0 / constrained_intra=0 / bframes=3 / b_pyramid=1 / b_adapt=2 / b_bias=0 / direct=3 / weightb=1 / open_gop=0 / weightp=2 / keyint=230 / keyint_min=23 / scenecut=40 / intra_refresh=0 / rc=2pass / mbtree=0 / bitrate=1352 / ratetol=1.0 / qcomp=0.60 / qpmin=10 / qpmax=51 / qpstep=4 / cplxblur=20.0 / qblur=0.5 / ip_ratio=1.40 / pb_ratio=1.30 / aq=1:1.00
Язык : English

Аудио #1
Идентификатор : 2
Формат : MPEG Audio
Версия формата : Version 1
Профиль формата : Layer 3
Режим : Joint stereo
Режим смешивания : Header stripping
Идентификатор кодека : A_MPEG/L3
Идентификатор кодека/Подсказка : MP3
Продолжительность : 2 ч. 28 м.
Вид битрейта : Постоянный
Битрейт : 256 Кбит/сек
Каналы : 2 канала
Частота : 48,0 КГц
Метод сжатия : С потерями
Размер потока : 273 Мбайт (12%)
Заголовок : DUB
Библиотека кодирования : LAME3.98r
Настройки программы : -m j -V 4 -q 3 -lowpass 19.7
Язык : Russian

Аудио #2
Идентификатор : 3
Формат : AC-3
Формат/Информация : Audio Coding 3
Расширение режима : CM (complete main)
Режим смешивания : Header stripping
Идентификатор кодека : A_AC3
Продолжительность : 2 ч. 28 м.
Вид битрейта : Постоянный
Битрейт : 448 Кбит/сек
Каналы : 6 каналов
Расположение каналов : Front: L C R, Side: L R, LFE
Частота : 48,0 КГц
Битовая глубина : 16 бит
Метод сжатия : С потерями
Размер потока : 477 Мбайт (22%)
Заголовок : Original
Язык : English

Текст #1
Идентификатор : 4
Формат : UTF-8
Идентификатор кодека : S_TEXT/UTF8
Идентификатор кодека/Информация : UTF-8 Plain Text
Язык : Russian

Текст #2
Идентификатор : 5
Формат : UTF-8
Идентификатор кодека : S_TEXT/UTF8
Идентификатор кодека/Информация : UTF-8 Plain Text
Язык : English













Поделиться:




реклама партнёра


Вернуться к началу
 Профиль Отправить личное сообщение  
 
   Похожие торренты   Автор   Торрент   Размер 
В этой теме нет новых непрочитанных сообщений. Марсианская одиссея / Stranded [Фантастика, Драма, 2001] DVDRip, Dvo

salma3

115 | 5

690.19 МБ

В этой теме нет новых непрочитанных сообщений. Звездный путь: Одиссея / Star Quest: The Odyssey [фантастика, 2009] DVDRip, Dvo

salma3

12 | 3

701.72 МБ

В этой теме нет новых непрочитанных сообщений. Космическая станция 76 / Space Station 76 [фантастика, драма, комедия, 2014] WEB-DLRip, Mvo [iTunes]

Dracon

457 | 12

1.37 ГБ

В этой теме нет новых непрочитанных сообщений. Космическая станция 76 / Space Station 76 [фантастика, драма, комедия, 2014] WEB-DL 720p, Mvo [iTunes]

Dracon

394 | 12

2.89 ГБ

В этой теме нет новых непрочитанных сообщений. Тайны Смолвиля / Smallville [S01-10] [фантастика, драма, мелодрама, приключения, 2001-2011] WEB-DLRip, DVDRip, HDRip, Mvo [СТС]

salma3

83 | 206

79.92 ГБ

В этой теме нет новых непрочитанных сообщений. Американская одиссея / American Odyssey [01x01-13 из 13] (Джэми Пэйн, Питер Хортон) [2015, триллер, драма, WEB-DLRip | NewStudio]

Dracon

69 | 38

7.17 ГБ

В этой теме нет новых непрочитанных сообщений. Американская одиссея / American Odyssey [01x01-13 из 13] (Джэми Пэйн, Питер Хортон) [2015, Триллер, драма, WEB-DL 720p | LostFilm]

Dracon

39 | 78

16.82 ГБ


Начать новую тему Ответить на тему  [ 1 сообщение ] 




Для Мосгорсуда, Роскомнадзора и рекламодателей:: mosgorsud-torrent[собачка]yandex.ru