Торрент файл
скачать торрент магнет ссылка Добавлен: 15 янв 2012, 22:28
Размер: 2.1 ГБ
Сидеров: 3
Личеров: 5
Автор

СообщениеДобавлено: 15 янв 2012, 22:28 

Не в сети
Супермодератор
Аватара пользователя
Дата регистрации:
11 апр 2010, 18:10
Спасибо: 5802 / 7
Сообщения: 56779
Зеленый сойлент / Soylent Green

Перевод: Профессиональный (двухголосый), cубтитры: Английские (полные, отключаемые)
Формат: HDRip-AVC, MKV, H.264, AC3
Страна: США
Режиссер: Ричард Флайшер
Жанр: фантастика, триллер, драма, детектив
Продолжительность: 01:36:49
Год выпуска: 1973
В ролях: Чарлтон Хестон, Ли Тейлор-Янг, Чак Коннорс, Джозеф Коттен, Брок Питерс, Паула Келли, Эдвард Дж. Робинсон, Стивен Янг, Майк Генри, Линкольн Килпэтрик
Описание: 2022 год. Земля перенаселена, в одном только Нью-Йорке проживает более 40 миллионов человек. Загрязнение окружающей среды привело к парниковому эффекту, в результате чего исчезли большая часть водных ресурсов, животные и растительность. Дабы хоть как-то накормить людей, корпорация «Сойлент» производит некий питательный продукт в виде разноцветных брикетов. Расследование неожиданного убийства члена правления корпорации приводит полицейского детектива Торна на фабрику, где он узнаёт страшную тайну «зелёного сойлента»…

Видео: 1280x536 (2,40:1), 23,976 fps, MPEG4 AVC (х264), High@L4.1 ~2854kbps avg, 0.173
Аудио: 48 kHz, AC-3, 2 ch, ~192.00 kbps avg


Автор РИПа:
Общее
Уникальный идентификатор : 225280307099394647074581478984115068933 (0xA97B68AFCA537413BCD180446FD0A005)
Полное имя : f:\Downloads\soylent_green_[tfile.ru].mkv
Формат : Matroska
Размер файла : 2,10 Гбайт
Продолжительность : 1 ч. 36 м.
Общий поток : 3107 Кбит/сек
Дата кодирования : UTC 2011-09-09 18:26:08
Программа кодирования : mkvmerge v4.6.0 ('Still Crazy After All These Years') сборка от Mar 10 2011 02:50:32
Библиотека кодирования : libebml v1.2.0 + libmatroska v1.1.0

Видео
Идентификатор : 1
Формат : AVC
Формат/Информация : Advanced Video Codec
Профиль формата : High@L4.1
Параметр CABAC формата : Да
Параметр ReFrames формата : 3 кадра
Режим смешивания : Header stripping
Идентификатор кодека : V_MPEG4/ISO/AVC
Продолжительность : 1 ч. 36 м.
Битрейт : 2854 Кбит/сек
Ширина : 1280 пикс.
Высота : 536 пикс.
Соотношение сторон : 2,40:1
Режим частоты кадров : Переменный
Частота кадров : 23,976 кадр/сек
Цветовое пространство : YUV
Подвыборка цветности : 4:2:0
Битовая глубина : 8 бит
Тип развёртки : Прогрессивная
Бит/(Пиксели*Кадры) : 0.173
Размер потока : 1,93 Гбайт (92%)
Библиотека кодирования : x264 core 116 r2019M 9cc407d
Настройки программы : cabac=1 / ref=3 / deblock=1:0:0 / analyse=0x3:0x133 / me=hex / subme=7 / psy=1 / psy_rd=1.00:0.20 / mixed_ref=1 / me_range=16 / chroma_me=1 / trellis=1 / 8x8dct=1 / cqm=0 / deadzone=21,11 / fast_pskip=1 / chroma_qp_offset=-3 / threads=8 / sliced_threads=0 / nr=0 / decimate=1 / interlaced=0 / bluray_compat=0 / constrained_intra=0 / bframes=3 / b_pyramid=1 / b_adapt=2 / b_bias=0 / direct=3 / weightb=1 / open_gop=0 / weightp=2 / keyint=230 / keyint_min=23 / scenecut=40 / intra_refresh=0 / rc=cqp / mbtree=0 / qp=20 / ip_ratio=1.40 / pb_ratio=1.30 / aq=0
Язык : English

Аудио
Идентификатор : 2
Формат : AC-3
Формат/Информация : Audio Coding 3
Расширение режима : CM (complete main)
Режим смешивания : Header stripping
Идентификатор кодека : A_AC3
Продолжительность : 1 ч. 36 м.
Вид битрейта : Постоянный
Битрейт : 192 Кбит/сек
Каналы : 2 канала
Расположение каналов : Front: L R
Частота : 48,0 КГц
Битовая глубина : 16 бит
Метод сжатия : С потерями
Размер потока : 133 Мбайт (6%)
Заголовок : DVO
Язык : Russian

Текст
Идентификатор : 3
Формат : UTF-8
Идентификатор кодека : S_TEXT/UTF8
Идентификатор кодека/Информация : UTF-8 Plain Text
Язык : English

Меню
00:00:00.000 : en:00:00:00.000
00:02:26.938 : en:00:02:26.938
00:07:05.717 : en:00:07:05.717
00:09:51.674 : en:00:09:51.674
00:12:42.637 : en:00:12:42.637
00:17:23.793 : en:00:17:23.793
00:21:14.190 : en:00:21:14.190
00:24:46.902 : en:00:24:46.902
00:28:14.109 : en:00:28:14.109
00:33:14.618 : en:00:33:14.618
00:35:58.031 : en:00:35:58.031
00:38:32.769 : en:00:38:32.769
00:42:29.756 : en:00:42:29.756
00:47:32.975 : en:00:47:32.975
00:50:39.245 : en:00:50:39.245
00:53:59.486 : en:00:53:59.486
00:57:07.841 : en:00:57:07.841
01:00:02.808 : en:01:00:02.808
01:02:04.554 : en:01:02:04.554
01:04:17.062 : en:01:04:17.062
01:07:13.821 : en:01:07:13.821
01:08:37.280 : en:01:08:37.280
01:09:46.015 : en:01:09:46.015
01:13:42.251 : en:01:13:42.251
01:19:01.695 : en:01:19:01.695
01:22:39.413 : en:01:22:39.413
01:26:52.791 : en:01:26:52.791
01:30:09.029 : en:01:30:09.029
01:34:00.760 : en:01:34:00.760












Поделиться:




реклама партнёра


Вернуться к началу
 Профиль Отправить личное сообщение  
 
   Похожие торренты   Автор   Торрент   Размер 
В этой теме нет новых непрочитанных сообщений. Зеленый ад / The Green Inferno (Элай Рот) [Ужасы, приключения, 2013] WEB-DLRip, avo

Dracon

4549 | 160

1.37 ГБ

В этой теме нет новых непрочитанных сообщений. Зеленый ад / The Green Inferno (Элай Рот) [Ужасы, приключения, 2013] WEB-DLRip, dvo

Dracon

433 | 28

1.37 ГБ

В этой теме нет новых непрочитанных сообщений. Зеленый ад / The Green Inferno (Элай Рот) [Ужасы, приключения, 2013] WEB-DL 720p, avo

Dracon

937 | 79

3.05 ГБ

В этой теме нет новых непрочитанных сообщений. Смеющийся полицейский / The Laughing Policeman [триллер, драма, криминал, 1973] HDRip, Avo

salma3

0 | 0

1.58 ГБ

В этой теме нет новых непрочитанных сообщений. Превосходство / Transcendence [фантастика, триллер, драма, детектив, 2014] HDRip, Dub

Dracon

3106 | 64

2.05 ГБ

В этой теме нет новых непрочитанных сообщений. Салем / Salem [S01] (Ричард Шепард) [2014, фантастика, триллер, драма, WEB-DLRip | BaibaKo]

Nickolas3435

88 | 48

8.43 ГБ

В этой теме нет новых непрочитанных сообщений. Салем / Salem [S01] (Ричард Шепард) [2014, фантастика, триллер, драма, WEB-DL 1080p | BaibaKo]

Nickolas3435

15 | 19

23.13 ГБ


Начать новую тему Ответить на тему  [ 1 сообщение ] 




Для Мосгорсуда, Роскомнадзора и рекламодателей:: mosgorsud-torrent[собачка]yandex.ru