Торрент файл
скачать торрент магнет ссылка Добавлен: 15 янв 2012, 22:26
Размер: 2.03 ГБ
Сидеров: 3
Личеров: 7
Автор

СообщениеДобавлено: 15 янв 2012, 22:26 

Не в сети
Супермодератор
Аватара пользователя
Дата регистрации:
11 апр 2010, 18:10
Спасибо: 5802 / 7
Сообщения: 56779
Штамм Андромеда / The Andromeda Strain

Перевод: Профессиональный (двухголосый), cубтитры: Английские (полные, отключаемые)
Формат: HDTVRip, MKV, H.264, AC3
Страна: США
Режиссер: Роберт Уайз
Жанр: фантастика, триллер, детектив
Продолжительность: 02:10:34
Год выпуска: 1971
В ролях: Артур Хилл, Дэвид Уэйн, Джеймс Олсон, Кейт Рид, Паула Келли, Джордж Митчел, Рамон Биери, Питер Хоббс, Кермит Мёрдок, Ричард О’Брайэн
Описание: Фильм рассказывает историю о том как вместе с космическим зондом на Землю попадает инопланетный вирус-способный вызывать мутацию у заражённых людей. Большей частью действия фильма разворачивается в подземной военной лаборатории в сердце пустыни. В которой ученые исследуют инопланетный вирус и пытаются найти способы противостоять ему.

Видео: 1280x544 (2,35:1), 23,976 fps, MPEG4 AVC (х264), High@L4.1 ~2100kbps avg, 0,126 bit/pixe
Аудио: 48 kHz, AC-3, 1 ch, ~128.00 kbps avg


Автор РИПа:
Общее
Уникальный идентификатор : 218016556879833164236453957936855809305 (0xA40476269D426593BFE9881408F27D19)
Полное имя : f:\Downloads\the_andromeda_strain_[tfile.ru].mkv
Формат : Matroska
Размер файла : 2,03 Гбайт
Продолжительность : 2 ч. 10 м.
Общий поток : 2229 Кбит/сек
Дата кодирования : UTC 2011-09-18 21:16:14
Программа кодирования : mkvmerge v4.6.0 ('Still Crazy After All These Years') сборка от Mar 10 2011 02:50:32
Библиотека кодирования : libebml v1.2.0 + libmatroska v1.1.0

Видео
Идентификатор : 1
Формат : AVC
Формат/Информация : Advanced Video Codec
Профиль формата : High@L4.1
Параметр CABAC формата : Да
Параметр ReFrames формата : 3 кадра
Режим смешивания : Header stripping
Идентификатор кодека : V_MPEG4/ISO/AVC
Продолжительность : 2 ч. 10 м.
Битрейт : 2100 Кбит/сек
Ширина : 1280 пикс.
Высота : 544 пикс.
Соотношение сторон : 2,35:1
Режим частоты кадров : Переменный
Частота кадров : 23,976 кадр/сек
Цветовое пространство : YUV
Подвыборка цветности : 4:2:0
Битовая глубина : 8 бит
Тип развёртки : Прогрессивная
Бит/(Пиксели*Кадры) : 0.126
Размер потока : 1,88 Гбайт (92%)
Библиотека кодирования : x264 core 116 r2019M 9cc407d
Настройки программы : cabac=1 / ref=3 / deblock=1:0:0 / analyse=0x3:0x133 / me=hex / subme=7 / psy=1 / psy_rd=1.00:0.20 / mixed_ref=1 / me_range=16 / chroma_me=1 / trellis=1 / 8x8dct=1 / cqm=0 / deadzone=21,11 / fast_pskip=1 / chroma_qp_offset=-3 / threads=8 / sliced_threads=0 / nr=0 / decimate=1 / interlaced=0 / bluray_compat=0 / constrained_intra=0 / bframes=3 / b_pyramid=1 / b_adapt=2 / b_bias=0 / direct=3 / weightb=1 / open_gop=0 / weightp=2 / keyint=230 / keyint_min=23 / scenecut=40 / intra_refresh=0 / rc_lookahead=40 / rc=abr / mbtree=1 / bitrate=2100 / ratetol=1.0 / qcomp=0.60 / qpmin=10 / qpmax=51 / qpstep=4 / ip_ratio=1.40 / aq=1:1.00
Язык : English

Аудио
Идентификатор : 2
Формат : AC-3
Формат/Информация : Audio Coding 3
Расширение режима : CM (complete main)
Режим смешивания : Header stripping
Идентификатор кодека : A_AC3
Продолжительность : 2 ч. 10 м.
Вид битрейта : Постоянный
Битрейт : 128 Кбит/сек
Каналы : 1 канал
Расположение каналов : Front: C
Частота : 48,0 КГц
Битовая глубина : 16 бит
Метод сжатия : С потерями
Размер потока : 120 Мбайт (6%)
Заголовок : DVO
Язык : Russian

Текст
Идентификатор : 3
Формат : UTF-8
Идентификатор кодека : S_TEXT/UTF8
Идентификатор кодека/Информация : UTF-8 Plain Text
Заголовок : ENG
Язык : English














Поделиться:




реклама партнёра


Вернуться к началу
 Профиль Отправить личное сообщение  
 
   Похожие торренты   Автор   Торрент   Размер 
В этой теме нет новых непрочитанных сообщений. Штамм / The Strain [01х01-04] (Гильермо дель Торо, Дэвид Семел, Кит Гордон) [2014, ужасы, фантастика, драма, HDTVRip | Kerob]

Nickolas3435

56 | 82

2.17 ГБ

В этой теме нет новых непрочитанных сообщений. Штамм / The Strain [02х01-13 из 13] (Гильермо дель Торо, Дэвид Семел, Кит Гордон) [2015, ужасы, фантастика, драма, HDTVRip | Jaskier]

Dracon

2 | 9

7.73 ГБ

В этой теме нет новых непрочитанных сообщений. Штамм / The Strain [01х01] (Гильермо дель Торо, Дэвид Семел, Кит Гордон) [2014, ужасы, фантастика, драма, HDTVRip | Kerob]

Nickolas3435

187 | 6

851.68 МБ

В этой теме нет новых непрочитанных сообщений. Штамм / The Strain [S02] [ужасы, фантастика, драма, 2015] WEB-DL 1080p, Mvo [NewStudio]

Dracon

108 | 309

24.05 ГБ

В этой теме нет новых непрочитанных сообщений. Штамм / The Strain [02x01-13 из 13] [ужасы, фантастика, драма, 2015] WEB-DLRip, Mvo [NewStudio]

Dracon

10 | 7

9.78 ГБ

В этой теме нет новых непрочитанных сообщений. Штамм / The Strain [02x01-13 из 13] [ужасы, фантастика, драма, 2015] WEB-DL 1080p, Mvo [LostFilm]

Dracon

21 | 22

25.23 ГБ

В этой теме нет новых непрочитанных сообщений. Штамм / The Strain [02x01-13 из 13] [ужасы, фантастика, драма, 2015] WEB-DLRip, Mvo [AlexFilm]

Dracon

37 | 38

7.26 ГБ


Начать новую тему Ответить на тему  [ 1 сообщение ] 




Для Мосгорсуда, Роскомнадзора и рекламодателей:: mosgorsud-torrent[собачка]yandex.ru