Торрент файл
скачать торрент магнет ссылка Добавлен: 15 янв 2012, 22:26
Размер: 2.1 ГБ
Сидеров: 66
Личеров: 5
Автор

СообщениеДобавлено: 15 янв 2012, 22:26 

Не в сети
Супермодератор
Аватара пользователя
Дата регистрации:
11 апр 2010, 18:10
Спасибо: 5802 / 7
Сообщения: 56779
Апокалипсис сегодня / Apocalypse Now



Перевод: Профессиональный (многоголосый, закадровый),субтитры: отсутствуют
Формат: HDRip-AVC, MKV, H.264, AC3
Страна: США
Жанр: драма, военный
Продолжительность: 03:16:00
Режиссер: Френсис Форд Коппола / Francis Ford Coppola
Год выпуска: 1979

В ролях: Марлон Брандо, Мартин Шин, Роберт Дювалл, Фредерик Форрест, Сэм Боттомс, Лоренс Фишбёрн, Альберт Холл, Харрисон Форд, Деннис Хоппер, Г.Д. Спрэдлин

Описание:Во время войны во Вьетнаме спецагент отправляется вверх по реке в Камбоджу с приказом найти и убить полусумасшедшего полковника, создавшего в отдаленном районе нечто вроде собственного королевства насилия. По пути мы видим почти сюрреалистический мир ужасов войны.

________

Видео: 1280x 544 (2:35:1), 23,976 fps, AVC (х264), High@L4.0, ~1150Kbps, 0.069 bit/pixel
Аудио: 48 kHz, AC3 Dolby Digital, 3/2 (L,C,R,l,r) + LFE ch, ~384 kbps


Автор РИПа:ddimmon22
Общее
Уникальный идентификатор: 248464014191458966815384169350672848302 (0xBAEC6DB26613307C9166A197C98E95AE)
Полное имя: K:\РИПЫ\apocalypse_now_[tfile.ru].mkv
Формат: Matroska
Версия формата: Version 2
Размер файла: 2,10 Гбайт
Продолжительность: 3 ч. 16 м.
Общий поток: 1536 Кбит/сек
Дата кодирования: UTC 2011-09-19 09:13:06
Программа кодирования: mkvmerge v4.9.1 ('Ich will') сборка от Aug 10 2011 09:31:20
Библиотека кодирования: libebml v1.2.1 + libmatroska v1.2.0

Видео
Идентификатор: 1
Формат: AVC
Формат/Информация: Advanced Video Codec
Профиль формата: High@L4.0
Параметр CABAC формата: Да
Параметр ReFrames формата: 8 кадров
Идентификатор кодека: V_MPEG4/ISO/AVC
Продолжительность: 3 ч. 16 м.
Битрейт: 1150 Кбит/сек
Ширина: 1280 пикс.
Высота: 544 пикс.
Соотношение сторон: 2,35:1
Частота кадров: 23,976 кадр/сек
Цветовое пространство: YUV
Подвыборка цветности: 4:2:0
Битовая глубина: 8 бит
Тип развёртки: Прогрессивная
Бит/(Пиксели*Кадры): 0.069
Размер потока: 1,54 Гбайт (73%)
Библиотека кодирования: x264 core 116 r2074 2641b9e
Настройки программы: cabac=1 / ref=8 / deblock=1:-1:-1 / analyse=0x3:0x133 / me=umh / subme=7 / psy=1 / psy_rd=1.00:0.10 / mixed_ref=1 / me_range=16 / chroma_me=1 / trellis=2 / 8x8dct=1 / cqm=0 / deadzone=21,11 / fast_pskip=0 / chroma_qp_offset=-3 / threads=6 / sliced_threads=0 / nr=0 / decimate=1 / interlaced=0 / bluray_compat=0 / constrained_intra=0 / bframes=3 / b_pyramid=2 / b_adapt=2 / b_bias=0 / direct=3 / weightb=1 / open_gop=0 / weightp=2 / keyint=250 / keyint_min=23 / scenecut=40 / intra_refresh=0 / rc_lookahead=50 / rc=2pass / mbtree=1 / bitrate=1150 / ratetol=1.0 / qcomp=0.60 / qpmin=0 / qpmax=69 / qpstep=4 / cplxblur=20.0 / qblur=0.5 / ip_ratio=1.40 / aq=1:1.00

Аудио
Идентификатор: 2
Формат: AC-3
Формат/Информация: Audio Coding 3
Расширение режима: CM (complete main)
Идентификатор кодека: A_AC3
Продолжительность: 3 ч. 16 м.
Вид битрейта: Постоянный
Битрейт: 384 Кбит/сек
Каналы: 6 каналов
Расположение каналов: Front: L C R, Side: L R, LFE
Частота: 48,0 КГц
Битовая глубина: 16 бит
Метод сжатия: С потерями
Размер потока: 539 Мбайт (25%)












Поделиться:




реклама партнёра


Вернуться к началу
 Профиль Отправить личное сообщение  
 
   Похожие торренты   Автор   Торрент   Размер 
В этой теме нет новых непрочитанных сообщений. Помпеи: Апокалипсис / Apocalypse Pompeii [боевик, приключения, 2014] HDRip, Avo

salma3

280 | 8

1.46 ГБ

В этой теме нет новых непрочитанных сообщений. Апрельский апокалипсис / April Apocalypse [Ужасы, мелодрама, комедия, 2013] HDRip, Dvo

salma3

16 | 3

1.37 ГБ

В этой теме нет новых непрочитанных сообщений. Ты, я и апокалипсис / You, Me and the Apocalypse [01х01-10 из 10] (Сауль Метцштайн, Тим Киркби, Майкл Энглер) [2015, комедия, криминал, драма, HDTVRip | AlexFilm]

Dracon

7 | 10

5.21 ГБ

В этой теме нет новых непрочитанных сообщений. Ты, я и апокалипсис / You, Me and the Apocalypse [01x01-10 из 10] (Сауль Метцштайн, Тим Киркби, Майкл Энглер) [2015, Комедия, Драма, Криминал, HDTVRip 720p | AlexFilm]

Dracon

2 | 3

22.71 ГБ

В этой теме нет новых непрочитанных сообщений. Люди Икс: Апокалипсис / X-Men: Apocalypse [Фантастика, боевик, приключения, 2016] Blu-Ray, Dub [Лицензия]

salma3

43 | 7

44.92 ГБ

В этой теме нет новых непрочитанных сообщений. Помпеи: Апокалипсис / Apocalypse Pompeii [боевик, приключения, 2014] BDRip 720p, Avo

salma3

166 | 19

4.6 ГБ

В этой теме нет новых непрочитанных сообщений. Люди Икс: Апокалипсис / X-Men: Apocalypse [фантастика, боевик, приключения, 2016] BDRip, Dub [Лицензия]

salma3

24 | 6

2.18 ГБ


Начать новую тему Ответить на тему  [ 1 сообщение ] 




Для Мосгорсуда, Роскомнадзора и рекламодателей:: mosgorsud-torrent[собачка]yandex.ru