Торрент файл
скачать торрент магнет ссылка Добавлен: 15 янв 2012, 22:23
Размер: 2.05 ГБ
Сидеров: 3
Личеров: 3
Автор

СообщениеДобавлено: 15 янв 2012, 22:23 

Не в сети
Супермодератор
Аватара пользователя
Дата регистрации:
11 апр 2010, 18:10
Спасибо: 5801 / 7
Сообщения: 56779
[b]Нью-Йорк, Нью-Йорк / New York, New York[/b]



Перевод: профессиональный двухголосый (НТВ+) / профессиональный многоголосый (Петербург, пятый канал)
Субтитры: отсутствуют
Формат: HDRip-AVC, MKV, H.264, AC3

Страна: США
Режиссер: Мартин Скорсезе
Жанр: драма, мелодрама, мюзикл

Продолжительность: 02:43:10
Год выпуска: 1977

В ролях: Лайза Миннелли, Роберт Де Ниро, Лайонел Стэндер, Барри Праймус, Мэри Кэй Плейс, Джордж Меммоли, Дик Миллер, Маррей Мостон, Кларенс Клемонс

Описание: В конце Второй Мировой войны Джимми, сладкоголосый и целеустремленный саксофонист встречает молодую певицу Фрэнсин. С самого первого момента их знакомства между ними зарождается любовь, которая сопровождает их на длинном скалистом пути к вершине успеха и славы.







Видео: 800x480 (1.67:1), 23.976 fps, AVC (x264) High@L4.1 ~1411 kbps avg, 0.15 bit/pixel

Аудио #1: [Русский] 48 kHz, AC3 Dolby Digital, 2/0 (L,R) ch, ~192 kbps avg [Профессиональный двухголосый (НТВ+)]

Аудио #2: [Русский] 48 kHz, AC3 Dolby Digital, 2/0 (L,R) ch, ~192 kbps avg [Профессиональный многоголосый (Петербург, пятый канал)]




Общее
Уникальный идентификатор: 250458463935004028211595829857582672003 (0xBC6C8BA947CF05B18B8A7A282CB56883)
Полное имя: D:\New.York.New.York.1977.HDRip.H.264.AC3.2.05GB_[tfile.ru].mkv
Формат: Matroska
Размер файла: 2,05 Гбайт
Продолжительность: 2 ч. 43 м.
Общий поток: 1796 Кбит/сек
Дата кодирования: UTC 2011-09-27 21:51:38
Программа кодирования: mkvmerge v4.7.0 ('Just Like You Imagined') сборка от Apr 21 2011 01:13:14
Библиотека кодирования: libebml v1.2.0 + libmatroska v1.1.0

Видео
Идентификатор: 1
Формат: AVC
Формат/Информация: Advanced Video Codec
Профиль формата: High@L4.1
Параметр CABAC формата: Да
Параметр ReFrames формата: 4 кадры
Режим смешивания: Header stripping
Идентификатор кодека: V_MPEG4/ISO/AVC
Продолжительность: 2 ч. 43 м.
Битрейт: 1411 Кбит/сек
Ширина: 800 пикс.
Высота: 480 пикс.
Соотношение сторон: 1,667
Частота кадров: 23,976 кадр/сек
Цветовое пространство: YUV
Подвыборка цветности: 4:2:0
Битовая глубина: 8 бит
Тип развёртки: Прогрессивная
Бит/(Пиксели*Кадры): 0.153
Размер потока: 1,57 Гбайт (77%)
Библиотека кодирования: x264 core 115 r1937 aa21558
Настройки программы: cabac=1 / ref=3 / deblock=1:0:0 / analyse=0x3:0x113 / me=hex / subme=7 / psy=1 / psy_rd=1.00:0.10 / mixed_ref=1 / me_range=16 / chroma_me=1 / trellis=1 / 8x8dct=1 / cqm=0 / deadzone=21,11 / fast_pskip=1 / chroma_qp_offset=-3 / threads=3 / sliced_threads=0 / nr=0 / decimate=1 / interlaced=0 / bluray_compat=0 / constrained_intra=0 / bframes=3 / b_pyramid=2 / b_adapt=1 / b_bias=0 / direct=3 / weightb=1 / open_gop=0 / weightp=2 / keyint=250 / keyint_min=23 / scenecut=40 / intra_refresh=0 / rc_lookahead=40 / rc=2pass / mbtree=1 / bitrate=1411 / ratetol=1.0 / qcomp=0.60 / qpmin=0 / qpmax=69 / qpstep=4 / cplxblur=20.0 / qblur=0.5 / ip_ratio=1.40 / aq=1:1.00

Аудио #1
Идентификатор: 2
Формат: AC-3
Формат/Информация: Audio Coding 3
Расширение режима: CM (complete main)
Режим смешивания: Header stripping
Идентификатор кодека: A_AC3
Продолжительность: 2 ч. 43 м.
Вид битрейта: Постоянный
Битрейт: 192 Кбит/сек
Канал(ы): 2 канала(ов)
Расположение каналов: Front: L R
Частота: 48,0 КГц
Битовая глубина: 16 бит
Метод сжатия: С потерями
Размер потока: 224 Мбайт (11%)

Аудио #2
Идентификатор: 3
Формат: AC-3
Формат/Информация: Audio Coding 3
Расширение режима: CM (complete main)
Режим смешивания: Header stripping
Идентификатор кодека: A_AC3
Продолжительность: 2 ч. 43 м.
Вид битрейта: Постоянный
Битрейт: 192 Кбит/сек
Канал(ы): 2 канала(ов)
Расположение каналов: Front: L R
Частота: 48,0 КГц
Битовая глубина: 16 бит
Метод сжатия: С потерями
Размер потока: 224 Мбайт (11%)


Сергей Кудрявцев, 8/10

Криминальная драма
"Этот фильм, вдохновлённый мелодрамой «Человек, которого я люблю» (1946) Рауля Уолша, является, прежде всего, признанием в любви Нью-Йорку и музыке, но, конечно, в первую очередь — джазу. История любви саксофониста Джимми Дойла и певицы Франсин Эванс, желающей стать кинозвездой Голливуда, развёртывается на фоне самой жизни в виде грандиозного спектакля. В его увертюре — окончание второй мировой войны, празднование победы, период расцвета джаза, а в финале — уже другие времена, начало бурных шестидесятых, когда на смену джазу пришёл рок. Картина всего лишь 34-летнего по возрасту Мартина Скорсезе проникнута, тем не менее, несомненной ностальгией по ушедшей эпохе. За год до того под руководством этого режиссёра был снят прощальный концерт группы The Band, а чуть позже смонтирована лента со знаменательным названием «Последний вальс».

Однако «Нью-Йорк, Нью-Йорк» — не документ давно минувшего времени, а искусная стилизация в духе мюзиклов 40—50-х годов, своеобразное посвящение музыкальному искусству «золотой поры» Голливуда. Поэтому участие в фильме Лайзы Миннелли должно, разумеется, напомнить о «звёздном часе» её матери Джуди Гарленд. Заглавная песня по настоятельной просьбе Роберта Де Ниро специально написана Джоном Кэндером и Фредом Эббом, авторами знаменитого бродвейского мюзикла «Кабаре», экранизированного именно с Миннелли в главной женской роли. А Де Ниро в качестве саксофониста Джимми Дойла в очередной раз доказал, что в состоянии играть практически любую роль и в любом жанре. Вероятно, картина Скорсезе может показаться слишком длинной, особенно её самый полный вариант, но всё-таки музыкальные и танцевальные номера компенсируют непритязательность сюжета, который вообще-то уложился бы без особых усилий в полтора часа экранного времени."

1989
















Поделиться:




реклама партнёра


Вернуться к началу
 Профиль Отправить личное сообщение  
 
   Похожие торренты   Автор   Торрент   Размер 
В этой теме нет новых непрочитанных сообщений. Нью-Йорк, Нью-Йорк / Synecdoche, New York [комедия, драма, 2008] HDRip, Mvo

salma3

23 | 7

1.85 ГБ

В этой теме нет новых непрочитанных сообщений. Нью-Йорк, Нью-Йорк / Synecdoche, New York [Комедия, драма, 2008] BDRip 720p, Mvo+Sub

salma3

71 | 6

4.36 ГБ

В этой теме нет новых непрочитанных сообщений. Добро пожаловать в Нью-Йорк / Welcome to New York [драма, 2014] WEBRip, Mvo

Dracon

417 | 7

1.37 ГБ

В этой теме нет новых непрочитанных сообщений. Добро пожаловать в Нью-Йорк / Welcome to New York [драма, 2014] DVD5, Mvo+Sub [Лицензия]

Dracon

47 | 4

4.37 ГБ

В этой теме нет новых непрочитанных сообщений. Добро пожаловать в Нью-Йорк / Welcome to New York [драма, 2014] DVDRip, Mvo [Лицензия]

Dracon

0 | 2

1.37 ГБ

В этой теме нет новых непрочитанных сообщений. Рождение мафии: Нью-Йорк / The Making of the Mob: New York [S01] (Джон Илер) [драма, криминал, триллер, 2015] WEB-DL 1080p [LostFilm]

Dracon

270 | 179

14.48 ГБ

В этой теме нет новых непрочитанных сообщений. Рождение мафии: Нью-Йорк / The Making of the Mob: New York [01x01-08 из 08] (Джон Илер) [драма, криминал, триллер, 2015] WEB-DL 720p [LostFilm]

Dracon

242 | 225

10.09 ГБ


Начать новую тему Ответить на тему  [ 1 сообщение ] 




Для Мосгорсуда, Роскомнадзора и рекламодателей:: mosgorsud-torrent[собачка]yandex.ru