Торрент файл
скачать торрент магнет ссылка Добавлен: 15 янв 2012, 22:22
Размер: 2.1 ГБ
Сидеров: 14
Личеров: 5
Автор

СообщениеДобавлено: 15 янв 2012, 22:22 

Не в сети
Супермодератор
Аватара пользователя
Дата регистрации:
11 апр 2010, 18:10
Спасибо: 5799 / 7
Сообщения: 56779
Амаркорд / Amarcord



Перевод: Профессиональный (двухголосый, закадровый),субтитры: отсутствуют
Формат: DVDRip-AVC, MKV, H.264, AC3
Страна: Франция, Италия
Жанр: драма, комедия
Продолжительность: 01:58:00
Режиссер: Федерико Феллини / Federico Fellini
Год выпуска: 1973

В ролях: Пупелла Маджио, Армандо Бранча, Магали Ноэль, Чиччо Инграссия, Нандо Орфеи, Луиджи Росси, Бруно Занин, Джанфилиппо Каркано, Жозиан Танцилли

Описание:Элегантная синьора в красном — объект всеобщего вожделения и восхищения. Пышногрудая хозяйка табачной лавки, царящая в фантазиях мальчиков-подростков…

Эти и многие другие замечательные эпизоды воскрешают в памяти легендарного мастера кино и оживают на экране, чтобы показать нам призрачный мир прошлого глазами взрослеющего пятнадцатилетнего подростка.

«Амаркорд» на романьольском диалекте курортного городка Римини, где вырос Феллини, означает «Я вспоминаю». Действие этой ностальгической картины происходит в итальянской провинции в 30-х годах XX века во времена фашистской диктатуры Муссолини.

Гормоны бурлят в юных телах подростков. Семья, церковь и дружба — незыблемые основы быта и жизни горожан. На улицах развешаны гигантские портреты великого «дуче». Секс царит на каждом углу. И жизнь, которую демонстрируют в местном кинотеатре, принимается за эталон реальной жизни.


________

Видео: 1152x 648 (1:77:7),25,000 кадр/сек, AVC (х264),High@L4.0, ~2346 Kbps, 0.126 bit/pixel
Аудио: 48 kHz, AC3 Dolby Digital, 2/0 (L,R,) ch, ~192 kbps


Автор РИПа:ddimmon22

Общее
Уникальный идентификатор: 251689797624565783762203027380316903391 (0xBD59B1196C93E512A6C22914E37F97DF)
Полное имя: I:\РИПЫ\amarcord_[tfile.ru].mkv
Формат: Matroska
Версия формата: Version 2
Размер файла: 2,10 Гбайт
Продолжительность: 1 ч. 58 м.
Общий поток: 2540 Кбит/сек
Дата кодирования: UTC 2011-10-01 10:04:24
Программа кодирования: mkvmerge v4.9.1 ('Ich will') сборка от Aug 10 2011 09:31:20
Библиотека кодирования: libebml v1.2.1 + libmatroska v1.2.0

Видео
Идентификатор: 1
Формат: AVC
Формат/Информация: Advanced Video Codec
Профиль формата: High@L4.0
Параметр CABAC формата: Да
Параметр ReFrames формата: 8 кадров
Идентификатор кодека: V_MPEG4/ISO/AVC
Продолжительность: 1 ч. 58 м.
Битрейт: 2346 Кбит/сек
Ширина: 1152 пикс.
Высота: 648 пикс.
Соотношение сторон: 16:9
Частота кадров: 25,000 кадр/сек
Цветовое пространство: YUV
Подвыборка цветности: 4:2:0
Битовая глубина: 8 бит
Тип развёртки: Прогрессивная
Бит/(Пиксели*Кадры): 0.126
Размер потока: 1,90 Гбайт (90%)
Библиотека кодирования: x264 core 116 r2074 2641b9e
Настройки программы: cabac=1 / ref=8 / deblock=1:-1:-1 / analyse=0x3:0x133 / me=umh / subme=7 / psy=1 / psy_rd=1.00:0.10 / mixed_ref=1 / me_range=16 / chroma_me=1 / trellis=2 / 8x8dct=1 / cqm=0 / deadzone=21,11 / fast_pskip=0 / chroma_qp_offset=-3 / threads=6 / sliced_threads=0 / nr=0 / decimate=1 / interlaced=0 / bluray_compat=0 / constrained_intra=0 / bframes=3 / b_pyramid=2 / b_adapt=2 / b_bias=0 / direct=3 / weightb=1 / open_gop=0 / weightp=2 / keyint=250 / keyint_min=25 / scenecut=40 / intra_refresh=0 / rc_lookahead=50 / rc=2pass / mbtree=1 / bitrate=2346 / ratetol=1.0 / qcomp=0.60 / qpmin=0 / qpmax=69 / qpstep=4 / cplxblur=20.0 / qblur=0.5 / ip_ratio=1.40 / aq=1:1.00

Аудио
Идентификатор: 2
Формат: AC-3
Формат/Информация: Audio Coding 3
Расширение режима: CM (complete main)
Идентификатор кодека: A_AC3
Продолжительность: 1 ч. 58 м.
Вид битрейта: Постоянный
Битрейт: 192 Кбит/сек
Каналы: 2 канала
Расположение каналов: Front: L R
Частота: 48,0 КГц
Битовая глубина: 16 бит
Метод сжатия: С потерями
Размер потока: 163 Мбайт (8%)










Поделиться:




реклама партнёра


Вернуться к началу
 Профиль Отправить личное сообщение  
 
   Похожие торренты   Автор   Торрент   Размер 
В этой теме нет новых непрочитанных сообщений. Чао, Федерико! [Серии 1-4 из 4] [Комедия, 2014] SATRip

Dracon

0 | 2

2.1 ГБ

В этой теме нет новых непрочитанных сообщений. Консьерж / Le Concierge [комедия, 1973] DVDRip, Dvo

salma3

12 | 2

1.48 ГБ

В этой теме нет новых непрочитанных сообщений. Дипломатический багаж / La Valise [комедия, приключения, 1973] DVDRip, Mvo

salma3

17 | 3

1.31 ГБ

В этой теме нет новых непрочитанных сообщений. Девочки из группы поддержки / The Cheerleaders [Комедия, 1973] DVDRip, Avo

salma3

63 | 2

1.37 ГБ

В этой теме нет новых непрочитанных сообщений. Большая жратва / La grande bouffe [Комедия, драма, 1973] BDRip 720p, Mvo

salma3

1 | 10

12.18 ГБ

В этой теме нет новых непрочитанных сообщений. Все сыновья крестной матери / Tutti figli di Mammasantissima [комедия, криминал, 1973] DVDRip, Avo

salma3

13 | 2

1.37 ГБ

В этой теме нет новых непрочитанных сообщений. Американская ночь / La Nuit americaine [драма, мелодрама, комедия, 1973] BDRip 1080p, Dvo+Sub

salma3

4 | 2

10.28 ГБ


Начать новую тему Ответить на тему  [ 1 сообщение ] 




Для Мосгорсуда, Роскомнадзора и рекламодателей:: mosgorsud-torrent[собачка]yandex.ru