Торрент файл
скачать торрент магнет ссылка Добавлен: 15 янв 2012, 22:21
Размер: 1.45 ГБ
Сидеров: 16
Личеров: 7
Автор

СообщениеДобавлено: 15 янв 2012, 22:21 

Не в сети
Супермодератор
Аватара пользователя
Дата регистрации:
11 апр 2010, 18:10
Спасибо: 5802 / 7
Сообщения: 56779
Пикник у Висячей Скалы / Picnic at Hanging Rock



Перевод: Профессиональный (многоголосый закадровый),субтитры: отсутствуют
Формат: HDRip-AVC, MKV, H.264, AC3
Страна: Австралия
Жанр: драма, детектив
Продолжительность: 01:46:00
Режиссер: Питер Уир / Peter Weir
Год выпуска: 1975

В ролях: Рейчел Робертс, Вивьен Грэй, Хелен Морс, Кирсти Чайлд, Тони Льюэллин-Джонс, Джеки Уивер, Фрэнк Гуннелл, Энн-Луиз Лэмберт, Карен Робсон, Джейн Вэллис

Описание:В 1900 году, в День Святого Валентина, стайка австралийских школьниц во главе с учительницей отправляются на пикник в район Висячей скалы, местной достопримечательности, и бесследно исчезают…

________

Видео: 896x 504 (1:77:7),24,000 кадр/сек, AVC (х264),High@L3.1, ~1561 Kbps, 0.144 bit/pixel
Аудио: 48 kHz, AC3 Dolby Digital, 2/0 (L,R) ch, ~384 kbps


Автор РИПа:ddimmon22

Общее
Уникальный идентификатор: 181779298372700882489762743450672733835 (0x88C16B5DD5EE4D839F12A2B62D5E9E8B)
Полное имя: I:\РИПЫ\picnic_at_hanging_rock_[tfile.ru].mkv
Формат: Matroska
Версия формата: Version 2
Размер файла: 1,45 Гбайт
Продолжительность: 1 ч. 46 м.
Общий поток: 1947 Кбит/сек
Дата кодирования: UTC 2011-10-07 16:35:31
Программа кодирования: mkvmerge v4.9.1 ('Ich will') сборка от Aug 10 2011 09:31:20
Библиотека кодирования: libebml v1.2.1 + libmatroska v1.2.0

Видео
Идентификатор: 1
Формат: AVC
Формат/Информация: Advanced Video Codec
Профиль формата: High@L3.1
Параметр CABAC формата: Да
Параметр ReFrames формата: 4 кадра
Идентификатор кодека: V_MPEG4/ISO/AVC
Продолжительность: 1 ч. 46 м.
Битрейт: 1561 Кбит/сек
Ширина: 896 пикс.
Высота: 504 пикс.
Соотношение сторон: 16:9
Частота кадров: 24,000 кадр/сек
Цветовое пространство: YUV
Подвыборка цветности: 4:2:0
Битовая глубина: 8 бит
Тип развёртки: Прогрессивная
Бит/(Пиксели*Кадры): 0.144
Размер потока: 1,14 Гбайт (78%)
Библиотека кодирования: x264 core 116 r2074 2641b9e
Настройки программы: cabac=1 / ref=3 / deblock=1:0:0 / analyse=0x3:0x113 / me=hex / subme=7 / psy=1 / psy_rd=1.00:0.00 / mixed_ref=1 / me_range=16 / chroma_me=1 / trellis=1 / 8x8dct=1 / cqm=0 / deadzone=21,11 / fast_pskip=1 / chroma_qp_offset=-2 / threads=6 / sliced_threads=0 / nr=0 / decimate=1 / interlaced=0 / bluray_compat=0 / constrained_intra=0 / bframes=3 / b_pyramid=2 / b_adapt=1 / b_bias=0 / direct=1 / weightb=1 / open_gop=0 / weightp=2 / keyint=250 / keyint_min=23 / scenecut=40 / intra_refresh=0 / rc_lookahead=40 / rc=2pass / mbtree=1 / bitrate=1561 / ratetol=1.0 / qcomp=0.60 / qpmin=0 / qpmax=69 / qpstep=4 / cplxblur=20.0 / qblur=0.5 / ip_ratio=1.40 / aq=1:1.00

Аудио
Идентификатор: 2
Формат: AC-3
Формат/Информация: Audio Coding 3
Расширение режима: CM (complete main)
Идентификатор кодека: A_AC3
Продолжительность: 1 ч. 46 м.
Вид битрейта: Постоянный
Битрейт: 384 Кбит/сек
Каналы: 2 канала
Расположение каналов: Front: L R
Частота: 48,0 КГц
Битовая глубина: 16 бит
Метод сжатия: С потерями
Размер потока: 294 Мбайт (20%)











Поделиться:




реклама партнёра


Вернуться к началу
 Профиль Отправить личное сообщение  
 
   Похожие торренты   Автор   Торрент   Размер 
В этой теме нет новых непрочитанных сообщений. Перед Классом / Front of the Class (Питер Уэрнер / Peter Werner) [2008г., драма, HDTVRip 720p] mvo

Alfredovich

125 | 14

4.46 ГБ

В этой теме нет новых непрочитанных сообщений. Пусть получит своё / Let Him Have It (Питер Медак / Peter Medak) [1991г., Франция, криминальная драма, DVDRip] AVO

Alfredovich

0 | 0

1.45 ГБ

В этой теме нет новых непрочитанных сообщений. Tommy Vitaly - Hanging Rock [2012, Neoclassical Power Metal, MP3]

PriZraK

0 | 2

91.5 МБ

В этой теме нет новых непрочитанных сообщений. Судебное обвинение Кейси Энтони / Prosecuting Casey Anthony (Питер Уэрнер / Peter Werner) [2013г., Канада, США, драма, HDTVRip] Dub

Alfredovich

38 | 14

1.39 ГБ

В этой теме нет новых непрочитанных сообщений. Пикник - Певец Декаданса [2012, Russian Rock, Art Rock, MP3]

PriZraK

15 | 2

111.55 МБ

В этой теме нет новых непрочитанных сообщений. Пикник - 30 Световых Лет [2011, Rock, MP3]

PriZraK

9 | 5

487.4 МБ

В этой теме нет новых непрочитанных сообщений. Пикник - Три судьбы [2011, Rock, MP3]

PriZraK

5 | 2

114.69 МБ


Начать новую тему Ответить на тему  [ 1 сообщение ] 




Для Мосгорсуда, Роскомнадзора и рекламодателей:: mosgorsud-torrent[собачка]yandex.ru