Торрент файл
скачать торрент магнет ссылка Добавлен: 15 янв 2012, 22:20
Размер: 1.45 ГБ
Сидеров: 6
Личеров: 4
Автор

СообщениеДобавлено: 15 янв 2012, 22:20 

Не в сети
Супермодератор
Аватара пользователя
Дата регистрации:
11 апр 2010, 18:10
Спасибо: 5799 / 7
Сообщения: 56779
Холостяк и девчонка / The Bachelor and The Bobby-Soxer



Перевод: Авторский (Сергей Кузнецов),субтитры: отсутствуют
Формат: DVDRip-AVC, MKV, H.264, AC3
Страна: США
Жанр: мелодрама, комедия
Продолжительность: 01:35:00
Режиссер: Ирвинг Реис / Irving Reis
Год выпуска: 1947

В ролях: Кэри Грант, Мирна Лой, Ширли Темпл, Руди Вэлли, Рэй Коллинз, Гарри Девенпорт, Джонни Сэндс, Дон Беддоу, Лиллиэн Рэндольф Веда, Энн Борг

Описание:Судья Маргарет Тернер слушает одно из очередных гражданских дел о ссоре граждан в ночном клубе Лос-Анжелеса. Одним из участников разбирательства является Дик — плейбой и модный художник. Выслушав нелепые оправдания, судья отпускает всех, выписав предупреждение. После суда Дик направляется читать лекцию о современном искусстве в местную школу, где в него до безумия влюбляется младшая сестра Маргарет — Сьюзен.

Девочка — подросток так сильно увлеклась красавцем художником, что, набравшись смелости и приодевшись в платье сестры, она забралась в его дом и безмятежно уснула на диване в ожидании хозяина. Дик, вернувшись поздно вечером, не сразу обнаруживает незваную гостью. Только он собрался выставить ее за порог, как неожиданно в его дом с криками и шумом ворвались Маргарет и ее друг — помощник окружного прокурора Томми Чемберлен.

Дик арестован и заточен в тюрьму, а убитая горем Сьюзен закатывает скандал. Чтобы охладить любовный пыл младшей Тернер и вызвать разочарование в новом увлечении, юристы на семейном совете решают обязать Дика следовать повсюду за Сьюзен. «Он скоро ей надоест», — говорят они. Делать нечего и герой соглашается на этот нелепое предложение, не садиться же ему в тюрьму…


____

Видео: 928x 624 (1:48:7),23,976 кадр/сек, AVC (х264), High@L3.1, ~ 1994 Kbps, 0.144 bit/pixel
Аудио: 48 kHz, AC3 Dolby Digital, 2/0 (L,R,) ch, ~192 kbps


Автор РИПа:ddimmon22
Общее
Уникальный идентификатор: 228974606037237249036931070985960050602 (0xAC42E7AFDBCA18AF911306751B824FAA)
Полное имя: I:\РИПЫ\holostiak_i_devchonka_[tfile.ru].mkv
Формат: Matroska
Версия формата: Version 2
Размер файла: 1,45 Гбайт
Продолжительность: 1 ч. 35 м.
Общий поток: 2188 Кбит/сек
Дата кодирования: UTC 2011-10-09 10:41:31
Программа кодирования: mkvmerge v4.9.1 ('Ich will') сборка от Aug 10 2011 09:31:20
Библиотека кодирования: libebml v1.2.1 + libmatroska v1.2.0

Видео
Идентификатор: 1
Формат: AVC
Формат/Информация: Advanced Video Codec
Профиль формата: High@L3.1
Параметр CABAC формата: Да
Параметр ReFrames формата: 4 кадра
Идентификатор кодека: V_MPEG4/ISO/AVC
Продолжительность: 1 ч. 35 м.
Битрейт: 1994 Кбит/сек
Ширина: 928 пикс.
Высота: 624 пикс.
Соотношение сторон3:2
Частота кадров: 23,976 кадр/сек
Цветовое пространство: YUV
Подвыборка цветности: 4:2:0
Битовая глубина: 8 бит
Тип развёртки: Прогрессивная
Бит/(Пиксели*Кадры): 0.144
Размер потока: 1,30 Гбайт (89%)
Библиотека кодирования: x264 core 116 r2074 2641b9e
Настройки программы: cabac=1 / ref=3 / deblock=1:0:0 / analyse=0x3:0x113 / me=hex / subme=7 / psy=1 / psy_rd=1.00:0.00 / mixed_ref=1 / me_range=16 / chroma_me=1 / trellis=1 / 8x8dct=1 / cqm=0 / deadzone=21,11 / fast_pskip=1 / chroma_qp_offset=-2 / threads=6 / sliced_threads=0 / nr=0 / decimate=1 / interlaced=0 / bluray_compat=0 / constrained_intra=0 / bframes=3 / b_pyramid=2 / b_adapt=1 / b_bias=0 / direct=1 / weightb=1 / open_gop=0 / weightp=2 / keyint=250 / keyint_min=23 / scenecut=40 / intra_refresh=0 / rc_lookahead=40 / rc=2pass / mbtree=1 / bitrate=1994 / ratetol=1.0 / qcomp=0.60 / qpmin=0 / qpmax=69 / qpstep=4 / cplxblur=20.0 / qblur=0.5 / ip_ratio=1.40 / aq=1:1.00

Аудио
Идентификатор: 2
Формат: AC-3
Формат/Информация: Audio Coding 3
Расширение режима: CM (complete main)
Идентификатор кодека: A_AC3
Продолжительность: 1 ч. 35 м.
Вид битрейта: Постоянный
Битрейт: 192 Кбит/сек
Каналы: 2 канала
Расположение каналов: Front: L R
Частота: 48,0 КГц
Битовая глубина: 16 бит
Метод сжатия: С потерями
Размер потока: 131 Мбайт (9%)











Поделиться:




реклама партнёра


Вернуться к началу
 Профиль Отправить личное сообщение  
 
   Похожие торренты   Автор   Торрент   Размер 
В этой теме нет новых непрочитанных сообщений. Мальчишник / Bachelor Party [Мелодрама, комедия, 1984] BDRemux, Mvo+Avo+Sub

salma3

9 | 4

30.78 ГБ

В этой теме нет новых непрочитанных сообщений. Мальчишник / Bachelor Party [Мелодрама, комедия, 1984] BDRip 720p, Mvo+Avo+Sub

salma3

57 | 6

7.61 ГБ

В этой теме нет новых непрочитанных сообщений. Мальчишник / Bachelor Party [мелодрама, комедия, 1984] BDRip 1080p, Mvo+Avo+Sub

salma3

17 | 6

15.01 ГБ

В этой теме нет новых непрочитанных сообщений. Девчонка, которую убить мало / Holka na zabití [криминал, комедия, детектив, 1975] DVDRip, Avo

salma3

26 | 3

1.46 ГБ

В этой теме нет новых непрочитанных сообщений. Простая девчонка (Максим Бриус) [Мелодрама, 2015] HDTVRip

Dracon

2273 | 248

1.37 ГБ

В этой теме нет новых непрочитанных сообщений. Простая девчонка (Максим Бриус) [Мелодрама, 2015] HDTV 1080i

Dracon

146 | 34

6.08 ГБ

В этой теме нет новых непрочитанных сообщений. Простая девчонка (Максим Бриус) [Мелодрама, 2015] HDTVRip 720p

Dracon

337 | 66

2.43 ГБ


Начать новую тему Ответить на тему  [ 1 сообщение ] 




Для Мосгорсуда, Роскомнадзора и рекламодателей:: mosgorsud-torrent[собачка]yandex.ru