Торрент файл
скачать торрент магнет ссылка Добавлен: 15 янв 2012, 22:18
Размер: 2.1 ГБ
Сидеров: 3
Личеров: 4
Автор

СообщениеДобавлено: 15 янв 2012, 22:18 

Не в сети
Супермодератор
Аватара пользователя
Дата регистрации:
11 апр 2010, 18:10
Спасибо: 5801 / 7
Сообщения: 56779
Вестсайдская история / West Side Story



Перевод: Профессиональный (многоголосый закадровый),субтитры: отсутствуют
Формат: HDRip-AVC, MKV, H.264, AC3
Страна: США
Жанр: мюзикл, драма, мелодрама, криминал
Продолжительность: 02:33:00
Режиссер: Джером Роббинс, Роберт Уайз / Jerome Robbins, Robert Wise
Год выпуска: 1961

В ролях: Натали Вуд, Ричард Беймер, Расс Тэмблин, Рита Морено, Джордж Чакирис ,Саймон Оукленд, Нед Глэсс ,Уильям Брэмли, Такер Смит,Тони Морденте.

Описание: Сюжет построен на бессмертной истории Ромео и Джульетты, развернутой на новый лад. На улицах Манхэттена ведут беспощадную войну за жизненное пространство две уличных банды, Джеты и Акулы. Тони — член банды Джетов и лучший друг главаря Риффа.

Смуглянка Мария — сестра предводителя пуэрториканцев Акул. Тони и Мария влюбляются друг в друга вопреки ненависти друзей и родственников, и их любовь заканчивается трагически…
Доп. информация: 10 премий «Оскар». Киноверсия культового бродвейского мюзикла, созданного потомками русских эмигрантов - композитором Леонардом Бернстайном и поэтом Стивеном Сонхаймом. Смотреть детям любого возраста.

____

Видео: 1280x576 (2:22:0), 23,976 кадр/сек, AVC (х264), High@L3.1, ~ 1574 Kbps,0.089 bit/pixel
Аудио: 48 kHz, AC3 Dolby Digital, 3/2 (L,C,R,l,r) + LFE ch, ~384 kbps

Автор РИПа:ANDREY22W22
Общее
Уникальный идентификатор: 193623572875590617513201437335396431709 (0x91AA8B2F8840D756814341BB79D2375D)
Полное имя: E:\рипы\West Side Story(1961) BDRip720p (1).mkv
Формат: Matroska
Версия формата: Version 2
Размер файла: 2,10 Гбайт
Продолжительность: 2 ч. 33 м.
Общий поток: 1960 Кбит/сек
Дата кодирования: UTC 2011-10-17 21:51:01
Программа кодирования: mkvmerge v4.9.1 ('Ich will') зібрано Aug 10 2011 09:31:20
Библиотека кодирования: libebml v1.2.1 + libmatroska v1.2.0

Видео
Идентификатор: 1
Формат: AVC
Формат/Информация: Advanced Video Codec
Профиль формата: High@L3.1
Параметр CABAC формата: Да
Параметр ReFrames формата: 4 кадра
Идентификатор кодека: V_MPEG4/ISO/AVC
Продолжительность: 2 ч. 33 м.
Битрейт: 1574 Кбит/сек
Ширина: 1280 пикс.
Высота: 576 пикс.
Соотношение сторон: 2,222
Частота кадров: 23,976 кадр/сек
Цветовое пространство: YUV
Подвыборка цветности: 4:2:0
Битовая глубина: 8 бит
Тип развёртки: Прогрессивная
Бит/(Пиксели*Кадры): 0.089
Размер потока: 1,65 Гбайт (78%)
Библиотека кодирования: x264 core 116 r2074 2641b9e
Настройки программы: cabac=1 / ref=3 / deblock=1:-1:-1 / analyse=0x3:0x113 / me=hex / subme=7 / psy=1 / psy_rd=1.00:0.10 / mixed_ref=1 / me_range=16 / chroma_me=1 / trellis=1 / 8x8dct=1 / cqm=0 / deadzone=21,11 / fast_pskip=1 / chroma_qp_offset=-3 / threads=12 / sliced_threads=0 / nr=0 / decimate=1 / interlaced=0 / bluray_compat=0 / constrained_intra=0 / bframes=3 / b_pyramid=2 / b_adapt=1 / b_bias=0 / direct=3 / weightb=1 / open_gop=0 / weightp=2 / keyint=250 / keyint_min=23 / scenecut=40 / intra_refresh=0 / rc_lookahead=40 / rc=2pass / mbtree=1 / bitrate=1574 / ratetol=1.0 / qcomp=0.60 / qpmin=0 / qpmax=69 / qpstep=4 / cplxblur=20.0 / qblur=0.5 / ip_ratio=1.40 / aq=1:1.00

Аудио
Идентификатор: 2
Формат: AC-3
Формат/Информация: Audio Coding 3
Расширение режима: CM (complete main)
Идентификатор кодека: A_AC3
Продолжительность: 2 ч. 33 м.
Вид битрейта: Постоянный
Битрейт: 384 Кбит/сек
Каналы: 6 каналов
Расположение каналов: Front: L C R, Side: L R, LFE
Частота: 48,0 КГц
Битовая глубина: 16 бит
Метод сжатия: С потерями
Размер потока: 422 Мбайт (20%)








Поделиться:




реклама партнёра


Вернуться к началу
 Профиль Отправить личное сообщение  
 
   Похожие торренты   Автор   Торрент   Размер 
В этой теме нет новых непрочитанных сообщений. Джесси Стоун: Тайны Парадайза / Jesse Stone: Lost in Paradise (Роберт Хармон / Robert Harmon) [2015г., Канада, драма, криминал, детектив, WEB-DL 720p] MVO

Alfredovich

4036 | 552

2.85 ГБ

В этой теме нет новых непрочитанных сообщений. Военная история / War Story [Драма, 2014] HDRip, avo

Dracon

3 | 2

1.47 ГБ

В этой теме нет новых непрочитанных сообщений. История ненависти 2 / Hate Story 2 [Триллер, драма, мелодрама, 2014] DVDRip, Dvo+Sub

salma3

80 | 5

1.21 ГБ

В этой теме нет новых непрочитанных сообщений. Полицейская история / Flic Story [триллер, драма, криминал, 1975] BDRip 1080p, Mvo+Dvo

salma3

12 | 2

12.11 ГБ

В этой теме нет новых непрочитанных сообщений. Полицейская история / Flic Story [триллер, драма, криминал, 1975] BDRip 720p, Mvo+Dvo

salma3

29 | 1

4.63 ГБ

В этой теме нет новых непрочитанных сообщений. Армейская история / A Soldier's Story [драма, криминал, детектив, военный, 1984] BDRip 1080p, Mvo+Sub

salma3

6 | 3

11.97 ГБ

В этой теме нет новых непрочитанных сообщений. Армейская история / A Soldier's Story [драма, криминал, детектив, военный, 1984] BDRip 720p, Mvo+Sub

salma3

30 | 3

5.13 ГБ


Начать новую тему Ответить на тему  [ 1 сообщение ] 




Для Мосгорсуда, Роскомнадзора и рекламодателей:: mosgorsud-torrent[собачка]yandex.ru