Торрент файл
скачать торрент магнет ссылка Добавлен: 15 янв 2012, 22:17
Размер: 2.13 ГБ
Сидеров: 4
Личеров: 5
Автор

СообщениеДобавлено: 15 янв 2012, 22:17 

Не в сети
Супермодератор
Аватара пользователя
Дата регистрации:
11 апр 2010, 18:10
Спасибо: 5802 / 7
Сообщения: 56779
Террор / The Terror

Перевод: Профессиональный (многоголосый, закадровый), cубтитры: отсутствуют
Формат: HDRip, MKV, H.264, AC3
Страна: США
Режиссер: Роджер Корман, Френсис Форд Коппола, Монте Хеллман, Джек Хилл, Джек Николсон
Жанр: мистика, фэнтези, триллер, драма, детектив
Продолжительность: 01:19:16
Год выпуска: 1963
В ролях: Борис Карлофф, Джек Николсон, Сандра Найт, Дик Миллер, Дороти Ньюманн, Джонатан Хэйз, Рик Дин, Уэйн Грейс
Описание: Молодой французский офицер Андре возвращаясь домой из похода, встречает симпатичную девушку, которая приводит его в замок барона Лепке. В этом старинном замке происходят странные вещи, связанные с загадочной смертью супруги барона. Андре, пытаясь раскрыть эту тайну, встречает яростное сопротивление со стороны барона.

Видео: 1280x720 (16:9), 23,976 fps, MPEG4 AVC (х264), High@L4.1 ~3000 kbps avg, 0.136 bit/pixel
Аудио#1:Русский: 48 kHz,AC-3, 2 ch, ~192.00 kbps avg [Профессиональный (многоголосый, закадровый)(R5)]
Аудио#2:Русский: 48 kHz,AC-3, 2 ch, ~192.00 kbps avg [Профессиональный (двухголосый, закадровый)(студия Elrom)]
Аудио#3:Английский: 48 kHz,AC-3, 6 ch, ~448.00 kbps avg [Оригинал]


Автор РИПа:
Общее
Уникальный идентификатор : 249213095430431899843455588346070641446 (0xBB7CB240DDECCD11A0BE9CD45C852B26)
Полное имя : f:\Downloads\the_terror_[tfile.ru].mkv
Формат : Matroska
Размер файла : 2,13 Гбайт
Продолжительность : 1 ч. 19 м.
Общий поток : 3838 Кбит/сек
Дата кодирования : UTC 2011-10-22 11:02:46
Программа кодирования : mkvmerge v4.6.0 ('Still Crazy After All These Years') сборка от Mar 10 2011 02:50:32
Библиотека кодирования : libebml v1.2.0 + libmatroska v1.1.0

Видео
Идентификатор : 1
Формат : AVC
Формат/Информация : Advanced Video Codec
Профиль формата : High@L4.1
Параметр CABAC формата : Да
Параметр ReFrames формата : 3 кадра
Режим смешивания : Header stripping
Идентификатор кодека : V_MPEG4/ISO/AVC
Продолжительность : 1 ч. 19 м.
Битрейт : 3000 Кбит/сек
Ширина : 1280 пикс.
Высота : 720 пикс.
Соотношение сторон : 16:9
Режим частоты кадров : Переменный
Частота кадров : 23,976 кадр/сек
Цветовое пространство : YUV
Подвыборка цветности : 4:2:0
Битовая глубина : 8 бит
Тип развёртки : Прогрессивная
Бит/(Пиксели*Кадры) : 0.136
Размер потока : 1,62 Гбайт (76%)
Библиотека кодирования : x264 core 116 r2019M 9cc407d
Настройки программы : cabac=1 / ref=3 / deblock=1:-1:-1 / analyse=0x3:0x133 / me=hex / subme=7 / psy=1 / psy_rd=1.00:0.15 / mixed_ref=1 / me_range=16 / chroma_me=1 / trellis=1 / 8x8dct=1 / cqm=0 / deadzone=21,11 / fast_pskip=1 / chroma_qp_offset=-3 / threads=8 / sliced_threads=0 / nr=0 / decimate=1 / interlaced=0 / bluray_compat=0 / constrained_intra=0 / bframes=3 / b_pyramid=1 / b_adapt=2 / b_bias=0 / direct=3 / weightb=1 / open_gop=0 / weightp=2 / keyint=230 / keyint_min=23 / scenecut=40 / intra_refresh=0 / rc_lookahead=40 / rc=abr / mbtree=1 / bitrate=3000 / ratetol=1.0 / qcomp=0.60 / qpmin=10 / qpmax=51 / qpstep=4 / vbv_maxrate=31250 / vbv_bufsize=31250 / nal_hrd=none / ip_ratio=1.40 / aq=1:1.00
Язык : English

Аудио #1
Идентификатор : 2
Формат : AC-3
Формат/Информация : Audio Coding 3
Расширение режима : CM (complete main)
Режим смешивания : Header stripping
Идентификатор кодека : A_AC3
Продолжительность : 1 ч. 19 м.
Вид битрейта : Постоянный
Битрейт : 192 Кбит/сек
Каналы : 2 канала
Расположение каналов : Front: L R
Частота : 48,0 КГц
Битовая глубина : 16 бит
Метод сжатия : С потерями
Размер потока : 109 Мбайт (5%)
Заголовок : MVO
Язык : Russian

Аудио #2
Идентификатор : 3
Формат : AC-3
Формат/Информация : Audio Coding 3
Расширение режима : CM (complete main)
Режим смешивания : Header stripping
Идентификатор кодека : A_AC3
Продолжительность : 1 ч. 19 м.
Вид битрейта : Постоянный
Битрейт : 192 Кбит/сек
Каналы : 2 канала
Расположение каналов : Front: L R
Частота : 48,0 КГц
Битовая глубина : 16 бит
Метод сжатия : С потерями
Размер потока : 109 Мбайт (5%)
Заголовок : DVO
Язык : Russian

Аудио #3
Идентификатор : 4
Формат : AC-3
Формат/Информация : Audio Coding 3
Расширение режима : CM (complete main)
Режим смешивания : Header stripping
Идентификатор кодека : A_AC3
Продолжительность : 1 ч. 19 м.
Вид битрейта : Постоянный
Битрейт : 448 Кбит/сек
Каналы : 6 каналов
Расположение каналов : Front: L C R, Side: L R, LFE
Частота : 48,0 КГц
Битовая глубина : 16 бит
Метод сжатия : С потерями
Размер потока : 254 Мбайт (12%)
Язык : English














Поделиться:




реклама партнёра


Вернуться к началу
 Профиль Отправить личное сообщение  
 
   Похожие торренты   Автор   Торрент   Размер 
В этой теме нет новых непрочитанных сообщений. Под псевдонимом: Джек Стронг / Джек Стронг / Jack Strong [боевик, драма, криминал, детектив, биография, 2014] HDRip, Avo

salma3

269 | 6

1.37 ГБ

В этой теме нет новых непрочитанных сообщений. Под псевдонимом: Джек Стронг / Джек Стронг / Jack Strong (Владислав Пасиковский) [2014, Шпионский триллер, BDRip-AVC]

Nickolas3435

277 | 7

2.4 ГБ

В этой теме нет новых непрочитанных сообщений. Джек Райан: Теория хаоса / Jack Ryan: Shadow Recruit [боевик, триллер, детектив, 2013] HDRip, Dub [iPad]

salma3

29 | 4

1.43 ГБ

В этой теме нет новых непрочитанных сообщений. Родина / Homeland [S05] (Джек Бендер) [2015, Триллер, драма, криминал, детектив, WEB-DLRip | LostFilm]

Dracon

780 | 711

7.61 ГБ

В этой теме нет новых непрочитанных сообщений. Под куполом / Under the Dome [s02] (Джек Бендер) [2014, ужасы, триллер, драма, детектив, WEB-DL 1080p | BaibaKo]

Nickolas3435

111 | 88

21.35 ГБ

В этой теме нет новых непрочитанных сообщений. Родина / Homeland [05х01-12 из 12] (Джек Бендер) [Триллер, драма, детектив, 2015] WEB-DLRip [Amedia]

Dracon

139 | 135

7.58 ГБ

В этой теме нет новых непрочитанных сообщений. Джек возвращается домой / Jack Goes Home [ужасы, триллер, драма, 2016] HDRip, Avo

salma3

222 | 219

1.43 ГБ


Начать новую тему Ответить на тему  [ 1 сообщение ] 




Для Мосгорсуда, Роскомнадзора и рекламодателей:: mosgorsud-torrent[собачка]yandex.ru