Торрент файл
скачать торрент магнет ссылка Добавлен: 15 янв 2012, 22:17
Размер: 2.91 ГБ
Сидеров: 26
Личеров: 9
Автор

СообщениеДобавлено: 15 янв 2012, 22:17 

Не в сети
Супермодератор
Аватара пользователя
Дата регистрации:
11 апр 2010, 18:10
Спасибо: 5801 / 7
Сообщения: 56779
Двадцатый век / Novecento




Перевод: Профессиональный (многоголосый, закадровый),субтитры: отсутствуют
Формат: HDRip-AVC, MKV, H.264, AC3
Страна: Франция, Италия, Германия (ФРГ)
Жанр: драма, история
Продолжительность: 02:41:00+02:33:00
Режиссер: Бернардо Бертолуччи / Bernardo Bertolucci
Год выпуска: 1976

В ролях: Роберт Де Ниро, Жерар Депардье, Берт Ланкастер, Дональд Сазерленд, Доминик Санда, Стефания Сандрелли, Стерлинг Хейден, Франческа Бертини, Лаура Бетти, Вернер Брунс, Алида Валли, Ромоло Валли, Стефания Казини, Анна Хенкель, Паоло Павези, Роберто Макканти, Антонио Пьованелли, Пиппо Кампанини, Паулу Бранку, Лью Босисио, Мария Монти, Анна-Мария Герарди,Анджело Пеллегрино, Хосе Квальо, Клара Колозимо, Марио Меникони, Карлотта Барилли, Пьеро Вида, Витторио Фанфони, Алессандро Бозио, Серджо Серафини, Патриция Де Клара, Эдда Ферронао, Винни Рива, Фабио Гарриба, Наццарено Натале, Катерина Косак, Эллен Швирс, Джакомо Риззо, Ферруччо Амендола, Клаудио Камазо, Джузеппе Ринальди, Антонио Гвиди, Ренато Мори, Рита Саваньоне, Франческо Д’Адда, Аллен Миджетт,Миммо Поли, Тициана Сенаторе

Описание:Прекрасным летним утром 1900 года в итальянской провинции Эмилия появляются на свет два мальчика. Олмо — еще один рот в многодетной семье бедного крестьянина. Альфредо — отпрыск богатых помещиков. Несмотря на столь различное социальное положение, мальчики не только подружатся, но пронесут дружбу через всю свою жизнь.

Они — дети страшных лет Европы, чье отрочество придется на годы Первой мировой войны, а зрелость вступит в свои права под грохот гитлеровских орудий. Да и в промежутке событий будет предостаточно. Фашистская Италия — страна неспокойная. Меняется вековой уклад общества, народ все больше узнает от социалистов о своих правах, Муссолини использует смуту для захвата власти.

Ветер перемен врывается и в провинцию Эмилия. Обостряются отношения крестьян и землевладельцев, но Олмо и Альфредо остаются друзьями. Сплетение судеб — близких и бесконечно далеких, сплетение жизни личности и жизни страны.


________


Автор РИПа:ddimmon22

Видео: 960 x 520 (1:84:6), 24.000 кадр/сек, AVC (х264), High@L3.1, ~ 1092 Kbps, 0.091 bit/pixel
Аудио: 48 kHz, AC3 Dolby Digital, 2/0 (L,R) ch, ~192 kbps


Общее
Уникальный идентификатор: 249051313386099807654401927410440081859 (0xBB5D89C8634A199699CDD1416B9E11C3)
Полное имя: K:\oktzbrmesz\novecento_[tfile.ru]\novecento_cd_1_[tfile.ru].mkv
Формат: Matroska
Версия формата: Version 2
Размер файла: 1,45 Гбайт
Продолжительность: 2 ч. 41 м.
Общий поток: 1286 Кбит/сек
Дата кодирования: UTC 2011-10-27 09:51:17
Программа кодирования: mkvmerge v4.9.1 ('Ich will') сборка от Aug 10 2011 09:31:20
Библиотека кодирования: libebml v1.2.1 + libmatroska v1.2.0

Видео
Идентификатор: 1
Формат: AVC
Формат/Информация: Advanced Video Codec
Профиль формата: High@L3.1
Параметр CABAC формата: Да
Параметр ReFrames формата: 8 кадров
Идентификатор кодека: V_MPEG4/ISO/AVC
Продолжительность: 2 ч. 41 м.
Битрейт: 1092 Кбит/сек
Ширина: 960 пикселей
Высота: 520 пикселей
Соотношение сторон: 16:9
Частота кадров: 24,000 кадра/сек
Цветовое пространство: YUV
Субдискретизация насыщенности: 4:2:0
Битовая глубина: 8 бит
Тип развёртки: Прогрессивная
Бит/(Пиксели*Кадры): 0.091
Размер потока: 1,21 Гбайт (83%)
Библиотека кодирования: x264 core 116 r2074 2641b9e
Настройки программы: cabac=1 / ref=8 / deblock=1:-1:-1 / analyse=0x3:0x133 / me=umh / subme=7 / psy=1 / psy_rd=1.00:0.10 / mixed_ref=1 / me_range=16 / chroma_me=1 / trellis=2 / 8x8dct=1 / cqm=0 / deadzone=21,11 / fast_pskip=0 / chroma_qp_offset=-3 / threads=6 / sliced_threads=0 / nr=0 / decimate=1 / interlaced=0 / bluray_compat=0 / constrained_intra=0 / bframes=3 / b_pyramid=2 / b_adapt=2 / b_bias=0 / direct=3 / weightb=1 / open_gop=0 / weightp=2 / keyint=250 / keyint_min=23 / scenecut=40 / intra_refresh=0 / rc_lookahead=50 / rc=2pass / mbtree=1 / bitrate=1092 / ratetol=1.0 / qcomp=0.60 / qpmin=0 / qpmax=69 / qpstep=4 / cplxblur=20.0 / qblur=0.5 / ip_ratio=1.40 / aq=1:1.00

Аудио
Идентификатор: 2
Формат: AC-3
Формат/Информация: Audio Coding 3
Расширение режима: CM (complete main)
Идентификатор кодека: A_AC3
Продолжительность: 2 ч. 41 м.
Вид битрейта: Постоянный
Битрейт: 192 Кбит/сек
Каналы: 2 канала
Расположение каналов: Front: L R
Частота: 48,0 КГц
Битовая глубина: 16 бит
Метод сжатия: С потерями
Размер потока: 222 Мбайт (15%)











Видео: 960 x 520 (1:84:6), 24.000 кадр/сек, AVC (х264), High@L3.1, ~1 162 Kbps,0.097 bit/pixel
Аудио: 48 kHz, AC3 Dolby Digital, 2/0 (L,R) ch, ~192 kbps


Общее
Уникальный идентификатор: 200093727884606199982928415341056057544 (0x9688A674EDF764168F8B36FB95A360C
Полное имя: K:\oktzbrmesz\novecento_[tfile.ru]\novecento_cd_2_[tfile.ru].mkv
Формат: Matroska
Версия формата: Version 2
Размер файла: 1,45 Гбайт
Продолжительность: 2 ч. 33 м.
Общий поток: 1356 Кбит/сек
Дата кодирования: UTC 2011-10-27 19:49:56
Программа кодирования: mkvmerge v4.9.1 ('Ich will') сборка от Aug 10 2011 09:31:20
Библиотека кодирования: libebml v1.2.1 + libmatroska v1.2.0

Видео
Идентификатор: 1
Формат: AVC
Формат/Информация: Advanced Video Codec
Профиль формата: High@L3.1
Параметр CABAC формата: Да
Параметр ReFrames формата: 8 кадров
Идентификатор кодека: V_MPEG4/ISO/AVC
Продолжительность: 2 ч. 33 м.
Битрейт: 1162 Кбит/сек
Ширина: 960 пикселей
Высота: 520 пикселей
Соотношение сторон: 16:9
Частота кадров: 24,000 кадра/сек
Цветовое пространство: YUV
Субдискретизация насыщенности: 4:2:0
Битовая глубина: 8 бит
Тип развёртки: Прогрессивная
Бит/(Пиксели*Кадры): 0.097
Размер потока: 1,22 Гбайт (84%)
Библиотека кодирования: x264 core 116 r2074 2641b9e
Настройки программы: cabac=1 / ref=8 / deblock=1:-1:-1 / analyse=0x3:0x133 / me=umh / subme=7 / psy=1 / psy_rd=1.00:0.10 / mixed_ref=1 / me_range=16 / chroma_me=1 / trellis=2 / 8x8dct=1 / cqm=0 / deadzone=21,11 / fast_pskip=0 / chroma_qp_offset=-3 / threads=6 / sliced_threads=0 / nr=0 / decimate=1 / interlaced=0 / bluray_compat=0 / constrained_intra=0 / bframes=3 / b_pyramid=2 / b_adapt=2 / b_bias=0 / direct=3 / weightb=1 / open_gop=0 / weightp=2 / keyint=250 / keyint_min=23 / scenecut=40 / intra_refresh=0 / rc_lookahead=50 / rc=2pass / mbtree=1 / bitrate=1162 / ratetol=1.0 / qcomp=0.60 / qpmin=0 / qpmax=69 / qpstep=4 / cplxblur=20.0 / qblur=0.5 / ip_ratio=1.40 / aq=1:1.00

Аудио
Идентификатор: 2
Формат: AC-3
Формат/Информация: Audio Coding 3
Расширение режима: CM (complete main)
Идентификатор кодека: A_AC3
Продолжительность: 2 ч. 33 м.
Вид битрейта: Постоянный
Битрейт: 192 Кбит/сек
Каналы: 2 канала
Расположение каналов: Front: L R
Частота: 48,0 КГц
Битовая глубина: 16 бит
Метод сжатия: С потерями
Размер потока: 211 Мбайт (14%)












Поделиться:




реклама партнёра


Вернуться к началу
 Профиль Отправить личное сообщение  
 
   Похожие торренты   Автор   Торрент   Размер 
В этой теме нет новых непрочитанных сообщений. Ты и я / Io e te (Бернардо Бертолуччи) [2012, драма, HDRip] mvo

Nickolas3435

24 | 4

744.26 МБ

В этой теме нет новых непрочитанных сообщений. 21 час в Мюнхене / 21 Hours at Munich [триллер, драма, история, 1976] DVDRip, Avo

salma3

4 | 4

1.46 ГБ

В этой теме нет новых непрочитанных сообщений. Мидуэй / Midway [боевик, драма, военный, история, 1976] BDRip 720p, Mvo+Avo+Sub

salma3

145 | 35

10.43 ГБ

В этой теме нет новых непрочитанных сообщений. Вся президентская рать / All the President's Men [триллер, драма, детектив, история, 1976] BDRip 1080p, 2Mvo+Dvo+Avo+Sub

salma3

3 | 3

18.72 ГБ

В этой теме нет новых непрочитанных сообщений. Вся президентская рать / All the President's Men [триллер, драма, детектив, история, 1976] BDRip 720p, 2Mvo+Dvo+Avo+Sub

salma3

45 | 4

8.56 ГБ

В этой теме нет новых непрочитанных сообщений. Новый кулак ярости / New Fist Of Fury [боевик, драма, 1976] HDRip, Mvo

salma3

90 | 8

1.37 ГБ

В этой теме нет новых непрочитанных сообщений. Последнее испытание Шаолиня / Shao Lin mu ren xiang [боевик, 1976] HDRip, Mvo

salma3

13 | 1

1.46 ГБ


Начать новую тему Ответить на тему  [ 1 сообщение ] 




Для Мосгорсуда, Роскомнадзора и рекламодателей:: mosgorsud-torrent[собачка]yandex.ru