Торрент файл
скачать торрент магнет ссылка Добавлен: 15 янв 2012, 22:13
Размер: 2.1 ГБ
Сидеров: 18
Личеров: 4
Автор

СообщениеДобавлено: 15 янв 2012, 22:13 

Не в сети
Супермодератор
Аватара пользователя
Дата регистрации:
11 апр 2010, 18:10
Спасибо: 5802 / 7
Сообщения: 56779
Он начинает сердиться, или Горчица бьет в нос / La moutarde me monte au nez

Перевод: Профессиональный (полное дублирование), cубтитры: Русские (полные, отключаемые)
Формат: DVDRip, MKV, H.264, AC3
Страна: Франция
Режиссер: Клод Зиди
Жанр: комедия
Продолжительность: 01:34:18
Год выпуска: 1974
В ролях: Пьер Ришар, Джейн Биркин, Клод Пьеплю, Жан Мартен, Даниэль Миназзоли, Витторио Каприоли, Жюльен Гиомар, Анри Гибе, Жан-Мари Пролье, Клеман Арари
Описание: Пьер Дюруа, учитель в пансионе для девочек, в свободное время занимается журналистикой. Когда в город приезжает съемочная группа кино, он пишет ядовитую заметку об американской кинозвезде-вулканической Джеки Логан.
Случайно познакомившись с Джеки, он меняет свое мнение и пытается сделать все, чтобы предотвратить публикацию заметки и ее откровенных фотографий…


Видео: 720x320 (2,25:1), 25,000 fps, MPEG4 AVC (х264), High@L4.1 ~2600 kbps avg, 0.451 bit/pixel
Аудио#1:Русский: 48 kHz,AC-3, 2 ch, ~192.00 kbps avg [Профессиональный (полное дублирование со вставками многоголосого перевода)]
Аудио#2:Русский: 48 kHz,AC-3, 2 ch, ~192.00 kbps avg [ Профессиональный (многоголосый, закадровый)]
Аудио#3:Французский: 48 kHz,AC-3, 2 ch, ~192.00 kbps avg [Оригинал]


Автор РИПа:
Общее
Уникальный идентификатор : 194501930511865938526925532989788337412 (0x9253B58F887FB0D082F6ADABFAF53504)
Полное имя : f:\Downloads\la_moutarde_me_monte_au_nez_[tfile.ru].mkv
Формат : Matroska
Версия формата : Version 2
Размер файла : 2,10 Гбайт
Продолжительность : 1 ч. 34 м.
Общий поток : 3181 Кбит/сек
Дата кодирования : UTC 2011-11-15 22:00:10
Программа кодирования : mkvmerge v4.6.0 ('Still Crazy After All These Years') сборка от Mar 10 2011 02:50:32
Библиотека кодирования : libebml v1.2.0 + libmatroska v1.1.0

Видео
Идентификатор : 1
Формат : AVC
Формат/Информация : Advanced Video Codec
Профиль формата : High@L4.1
Параметр CABAC формата : Да
Параметр ReFrames формата : 3 кадра
Режим смешивания : Header stripping
Идентификатор кодека : V_MPEG4/ISO/AVC
Продолжительность : 1 ч. 34 м.
Битрейт : 2600 Кбит/сек
Ширина : 720 пикселей
Высота : 320 пикселей
Соотношение сторон : 2,25:1
Режим частоты кадров : Переменный
Частота кадров : 25,000 кадров/сек
Цветовое пространство : YUV
Субдискретизация насыщенности : 4:2:0
Битовая глубина : 8 бит
Тип развёртки : MBAFF
Бит/(Пиксели*Кадры) : 0.451
Размер потока : 1,67 Гбайт (80%)
Библиотека кодирования : x264 core 116 r2019M 9cc407d
Настройки программы : cabac=1 / ref=3 / deblock=1:-1:-1 / analyse=0x3:0x133 / me=hex / subme=7 / psy=1 / psy_rd=1.00:0.15 / mixed_ref=1 / me_range=16 / chroma_me=1 / trellis=1 / 8x8dct=1 / cqm=0 / deadzone=21,11 / fast_pskip=1 / chroma_qp_offset=-3 / threads=8 / sliced_threads=0 / nr=0 / decimate=1 / interlaced=tff / bluray_compat=0 / constrained_intra=0 / bframes=3 / b_pyramid=1 / b_adapt=2 / b_bias=0 / direct=3 / weightb=1 / open_gop=0 / weightp=0 / keyint=250 / keyint_min=25 / scenecut=40 / intra_refresh=0 / rc_lookahead=40 / rc=abr / mbtree=1 / bitrate=2600 / ratetol=1.0 / qcomp=0.60 / qpmin=10 / qpmax=51 / qpstep=4 / vbv_maxrate=9000 / vbv_bufsize=1835 / nal_hrd=none / ip_ratio=1.40 / aq=1:1.00
Язык : French
Default : Да
Forced : Нет

Аудио #1
Идентификатор : 2
Формат : AC-3
Формат/Информация : Audio Coding 3
Расширение режима : CM (complete main)
Режим смешивания : Header stripping
Идентификатор кодека : A_AC3
Продолжительность : 1 ч. 34 м.
Вид битрейта : Постоянный
Битрейт : 192 Кбит/сек
Каналы : 2 канала
Расположение каналов : Front: L R
Частота : 48,0 КГц
Битовая глубина : 16 бит
Метод сжатия : С потерями
Размер потока : 130 Мбайт (6%)
Заголовок : DUB
Язык : Russian
Default : Да
Forced : Нет

Аудио #2
Идентификатор : 3
Формат : AC-3
Формат/Информация : Audio Coding 3
Расширение режима : CM (complete main)
Режим смешивания : Header stripping
Идентификатор кодека : A_AC3
Продолжительность : 1 ч. 34 м.
Вид битрейта : Постоянный
Битрейт : 192 Кбит/сек
Каналы : 2 канала
Расположение каналов : Front: L R
Частота : 48,0 КГц
Битовая глубина : 16 бит
Метод сжатия : С потерями
Размер потока : 130 Мбайт (6%)
Заголовок : MVO
Язык : Russian
Default : Нет
Forced : Нет

Аудио #3
Идентификатор : 4
Формат : AC-3
Формат/Информация : Audio Coding 3
Расширение режима : CM (complete main)
Режим смешивания : Header stripping
Идентификатор кодека : A_AC3
Продолжительность : 1 ч. 34 м.
Вид битрейта : Постоянный
Битрейт : 192 Кбит/сек
Каналы : 2 канала
Расположение каналов : Front: L R
Частота : 48,0 КГц
Битовая глубина : 16 бит
Метод сжатия : С потерями
Размер потока : 130 Мбайт (6%)
Язык : French
Default : Нет
Forced : Нет

Текст
Идентификатор : 5
Формат : UTF-8
Идентификатор кодека : S_TEXT/UTF8
Идентификатор кодека/Информация : UTF-8 Plain Text
Язык : Russian
Default : Да
Forced : Нет












Поделиться:




реклама партнёра


Вернуться к началу
 Профиль Отправить личное сообщение  
 
   Похожие торренты   Автор   Торрент   Размер 
В этой теме нет новых непрочитанных сообщений. Двое / Deux (Клод Зиди / Claude Zidi) [1989г., мелодрама, драма, DVDRip] MVO

Alfredovich

6 | 3

1.46 ГБ

В этой теме нет новых непрочитанных сообщений. Секрет Монте-Кристо / The Treasure of Monte Cristo [приключения, 1961] DVDRip, Mvo

salma3

101 | 48

1.46 ГБ

В этой теме нет новых непрочитанных сообщений. Мужчина и женщина: способ применения / Hommes, femmes, mode d'emploi (Клод Лелуш / Claude Lelouch) [1996г., драма, комедия, DVDRip-AVC] MVO

Alfredovich

6 | 4

2.05 ГБ

В этой теме нет новых непрочитанных сообщений. Взбесившийся барашек / Le Mouton enragé [драма, комедия, 1974] DVDRip, Mvo

salma3

33 | 3

1.37 ГБ

В этой теме нет новых непрочитанных сообщений. Парень и его пес / A Boy and His Dog [фантастика, триллер, драма, комедия, 1974] DVDRip, Avo [Алексеев]

salma3

17 | 2

1.45 ГБ

В этой теме нет новых непрочитанных сообщений. Красный райдинг 1974 / Red Riding 1974 [детектив, 2009] BDRip 720p, Dvo+Sub

salma3

83 | 9

4.04 ГБ

В этой теме нет новых непрочитанных сообщений. И слоны бывают неверны / Un éléphant ça trompe énormément [комедия, 1974] DVDRip, Dvo

salma3

65 | 3

1.46 ГБ


Начать новую тему Ответить на тему  [ 1 сообщение ] 




Для Мосгорсуда, Роскомнадзора и рекламодателей:: mosgorsud-torrent[собачка]yandex.ru