Торрент файл
скачать торрент магнет ссылка Добавлен: 15 янв 2012, 22:10
Размер: 2.03 ГБ
Сидеров: 5
Личеров: 4
Автор

СообщениеДобавлено: 15 янв 2012, 22:10 

Не в сети
Супермодератор
Аватара пользователя
Дата регистрации:
11 апр 2010, 18:10
Спасибо: 5801 / 7
Сообщения: 56779
Возвращение высокого блондина / Le retour du grand blond

Перевод: Профессиональный (полное дублирование), cубтитры: отсутствуют
Формат: HDTVRip, MKV, H.264, AC3
Страна: Франция
Режиссер: Ив Робер
Жанр: комедия
Продолжительность: 01:16:45
Год выпуска: 1974
В ролях: Пьер Ришар, Жан Карме, Жан Рошфор, Мирей Дарк, Жан Буиз, Поль Ле Персон, Колетт Кастель, Анри Гибе, Эрве Санд, Жан Амос
Описание: Шпионские игры продолжаются. Спецслужбы не могут оставить Перрена в покое — новый министр нашёл досье на высокого блондина, заведённое Бернаром Миланом, и следуя подсказке капитана Камбрэ, подозревающего Тулуза в фарсе с высоким блондином и убийстве Милана, приказывает полковнику Тулузу представить ему «суперагента». Тот в смятении придумывает историю о том, что блондин совсем недавно погиб при выполнении спецоперации в тропиках, но министр требует привести тело на родину для захоронения с почестями. Тулуз посылает своих людей в Рио-де-Жанейро, где Перрен живёт с Кристин, чтобы убить его.
Блондин снова уходит от опасности, ни о чём не подозревая. Тогда Тулуз со своими агентами похищает Кристин, и теперь блондин вынужден выполнять его требования — приехать в Париж и разыграть из себя суперагента перед министром, что убедило бы его прекратить расследование убийства Милана. Министр намеревается послать «суперагента» на важное и очень опасное задание. Тулуз хочет избавиться от блондина, после того, как он сыграет свою роль, так как теперь он «слишком много знает». На помощь Перрену приходит его друг Морис…


Видео: 1200x720 (1,66:1), 50,000 fps, MPEG4 AVC (х264), High@L4.1 ~3000 kbps avg, 0.069 bit/pixel
Аудио#1:Русский: 48 kHz,AC-3, 2 ch, ~192.00 kbps avg [Профессиональный (полное дублирование со вставками многоголосого перевода)]
Аудио#2:Русский: 48 kHz,AC-3, 2 ch, ~192.00 kbps avg [Профессиональный (многоголосый, закадровый)]
Аудио#3:Французский: 48 kHz,AC-3, 2 ch, ~448.00 kbps avg [Оригинал]


Автор РИПа:
Общее
Уникальный идентификатор : 226424215236151735700067246023488178498 (0xAA57B7B65286931591D282FA68620942)
Полное имя : f:\Downloads\le_retour_du_grand_blond_[tfile.ru].mkv
Формат : Matroska
Версия формата : Version 2
Размер файла : 2,03 Гбайт
Продолжительность : 1 ч. 16 м.
Общий поток : 3784 Кбит/сек
Дата кодирования : UTC 2011-12-06 16:24:34
Программа кодирования : mkvmerge v4.6.0 ('Still Crazy After All These Years') сборка от Mar 10 2011 02:50:32
Библиотека кодирования : libebml v1.2.0 + libmatroska v1.1.0

Видео
Идентификатор : 1
Формат : AVC
Формат/Информация : Advanced Video Codec
Профиль формата : High@L4.1
Параметр CABAC формата : Да
Параметр ReFrames формата : 3 кадра
Режим смешивания : Header stripping
Идентификатор кодека : V_MPEG4/ISO/AVC
Продолжительность : 1 ч. 16 м.
Битрейт : 3000 Кбит/сек
Ширина : 1200 пикселей
Высота : 720 пикселей
Соотношение сторон : 1,667
Режим частоты кадров : Переменный
Частота кадров : 50,000 кадров/сек
Цветовое пространство : YUV
Субдискретизация насыщенности : 4:2:0
Битовая глубина : 8 бит
Тип развёртки : Прогрессивная
Бит/(Пиксели*Кадры) : 0.069
Размер потока : 1,54 Гбайт (76%)
Библиотека кодирования : x264 core 116 r2019M 9cc407d
Настройки программы : cabac=1 / ref=3 / deblock=1:-1:-1 / analyse=0x3:0x133 / me=hex / subme=7 / psy=1 / psy_rd=1.00:0.15 / mixed_ref=1 / me_range=16 / chroma_me=1 / trellis=1 / 8x8dct=1 / cqm=0 / deadzone=21,11 / fast_pskip=1 / chroma_qp_offset=-3 / threads=8 / sliced_threads=0 / nr=0 / decimate=1 / interlaced=0 / bluray_compat=0 / constrained_intra=0 / bframes=3 / b_pyramid=1 / b_adapt=2 / b_bias=0 / direct=3 / weightb=1 / open_gop=0 / weightp=2 / keyint=500 / keyint_min=50 / scenecut=40 / intra_refresh=0 / rc_lookahead=40 / rc=abr / mbtree=1 / bitrate=3000 / ratetol=1.0 / qcomp=0.60 / qpmin=10 / qpmax=51 / qpstep=4 / ip_ratio=1.40 / aq=1:1.00
Язык : French
Default : Да
Forced : Нет

Аудио #1
Идентификатор : 2
Формат : AC-3
Формат/Информация : Audio Coding 3
Расширение режима : CM (complete main)
Режим смешивания : Header stripping
Идентификатор кодека : A_AC3
Продолжительность : 1 ч. 16 м.
Вид битрейта : Постоянный
Битрейт : 192 Кбит/сек
Каналы : 2 канала
Расположение каналов : Front: L R
Частота : 48,0 КГц
Битовая глубина : 16 бит
Метод сжатия : С потерями
Размер потока : 105 Мбайт (5%)
Заголовок : DUB
Язык : Russian
Default : Да
Forced : Нет

Аудио #2
Идентификатор : 3
Формат : AC-3
Формат/Информация : Audio Coding 3
Расширение режима : CM (complete main)
Режим смешивания : Header stripping
Идентификатор кодека : A_AC3
Продолжительность : 1 ч. 16 м.
Вид битрейта : Постоянный
Битрейт : 192 Кбит/сек
Каналы : 2 канала
Расположение каналов : Front: L R
Частота : 48,0 КГц
Битовая глубина : 16 бит
Метод сжатия : С потерями
Размер потока : 105 Мбайт (5%)
Заголовок : MVO
Язык : Russian
Default : Нет
Forced : Нет

Аудио #3
Идентификатор : 4
Формат : AC-3
Формат/Информация : Audio Coding 3
Расширение режима : CM (complete main)
Режим смешивания : Header stripping
Идентификатор кодека : A_AC3
Продолжительность : 1 ч. 16 м.
Вид битрейта : Постоянный
Битрейт : 448 Кбит/сек
Каналы : 2 канала
Расположение каналов : Front: L R
Частота : 48,0 КГц
Битовая глубина : 16 бит
Метод сжатия : С потерями
Размер потока : 246 Мбайт (12%)
Заголовок : FRE
Язык : French
Default : Нет
Forced : Нет
















Поделиться:




реклама партнёра


Вернуться к началу
 Профиль Отправить личное сообщение  
 
   Похожие торренты   Автор   Торрент   Размер 
В этой теме нет новых непрочитанных сообщений. Высокий блондин в черном ботинке / Le grand blond avec une chaussure noire [ комедия, детектив, 1972] BDRip, Mvo [Союз-Видео]

salma3

64 | 2

1.45 ГБ

В этой теме нет новых непрочитанных сообщений. Возвращение Мартина Герра / Le retour de Martin Guerre [драма, мелодрама, криминал, детектив, биография, история, 1982] DVDRip, Mvo

salma3

3 | 2

1.46 ГБ

В этой теме нет новых непрочитанных сообщений. Большая афера / The Grand Seduction [комедия, 2013] HDTVRip, Mvo

Dracon

3997 | 92

1.37 ГБ

В этой теме нет новых непрочитанных сообщений. Красный райдинг 1974 / Red Riding 1974 [детектив, 2009] BDRip 720p, Dvo+Sub

salma3

83 | 9

4.04 ГБ

В этой теме нет новых непрочитанных сообщений. Якудза / The Yakuza [драма, боевик, приключения, 1974] HDTVRip, Mvo

salma3

32 | 2

1.46 ГБ

В этой теме нет новых непрочитанных сообщений. Возвращение призрака / Bhoot Returns [ужасы, 2012] HDTVRip, Dvo

salma3

10 | 6

746.1 МБ

В этой теме нет новых непрочитанных сообщений. Возвращение Мухтара-2 [S09] (Владимир Златоустовский) [Детектив, криминал, 2013-2014] SATRip, WEB-DLRip, HDTVRip

Dracon

22 | 26

51.59 ГБ


Начать новую тему Ответить на тему  [ 1 сообщение ] 




Для Мосгорсуда, Роскомнадзора и рекламодателей:: mosgorsud-torrent[собачка]yandex.ru