Торрент файл
скачать торрент магнет ссылка Добавлен: 15 янв 2012, 22:10
Размер: 2.07 ГБ
Сидеров: 6
Личеров: 3
Автор

СообщениеДобавлено: 15 янв 2012, 22:10 

Не в сети
Супермодератор
Аватара пользователя
Дата регистрации:
11 апр 2010, 18:10
Спасибо: 5960 / 7
Сообщения: 56765
Высокий блондин в черном ботинке / Le grand blond avec une chaussure noire

Перевод: Профессиональный (полное дублирование), cубтитры: Русские (форсированные, отключаемые)
Формат: DVDRip, MKV, H.264, AC3
Страна: Франция
Режиссер: Ив Робер
Жанр: комедия, детектив
Продолжительность: 01:25:58
Год выпуска: 1972
В ролях: Пьер Ришар, Бернар Блие, Жан Рошфор, Мирей Дарк, Колетт Кастель, Жан Обе, Робер Кастель, Жан Содрэ, Роже Качча, Морис Барье
Описание: Рассеянного скрипача-виртуоза Франсуа Перрена принимают за секретного суперагента. Высокий блондин оказывается крепким орешком. Он с легкостью избегает всех опасностей, даже не подозревая о них.

Видео: 720x432 (1.68:1), 25,000 fps, MPEG4 AVC (х264), High@L4.1 ~2800 kbps avg, 0.360 bit/pixel
Аудио#1:Русский: 48 kHz,AC-3, 2 ch, ~192.00 kbps avg [Профессиональный (полное дублирование со вставками многоголосого перевода)]
Аудио#2:Русский: 48 kHz,AC-3, 2 ch, ~256.00 kbps avg [Профессиональный (полное дублирование со вставками русских субтитров)]
Аудио#3:Французский: 48 kHz,AC-3, 2 ch, ~224.00 kbps avg [Оригинал]


Автор РИПа:
Награды:
Берлинский кинофестиваль
1973
Серебряный Медведь
Номинации (1):
Золотой Медведь

Общее
Уникальный идентификатор : 185676714769783633249533757759838205795 (0x8BB008D4AB076D3C97D896EEE827B763)
Полное имя : f:\Downloads\le_grand_blond_avec_une_chaussure_noire_[tfile.ru].mkv
Формат : Matroska
Версия формата : Version 2
Размер файла : 2,07 Гбайт
Продолжительность : 1 ч. 25 м.
Общий поток : 3451 Кбит/сек
Дата кодирования : UTC 2011-12-06 18:41:47
Программа кодирования : mkvmerge v4.6.0 ('Still Crazy After All These Years') сборка от Mar 10 2011 02:50:32
Библиотека кодирования : libebml v1.2.0 + libmatroska v1.1.0

Видео
Идентификатор : 1
Формат : AVC
Формат/Информация : Advanced Video Codec
Профиль формата : High@L4.1
Параметр CABAC формата : Да
Параметр ReFrames формата : 3 кадра
Режим смешивания : Header stripping
Идентификатор кодека : V_MPEG4/ISO/AVC
Продолжительность : 1 ч. 25 м.
Битрейт : 2800 Кбит/сек
Ширина : 720 пикселей
Высота : 432 пикселя
Соотношение сторон : 1,678
Соотношение сторон в оригинале : 1,679
Режим частоты кадров : Переменный
Частота кадров : 25,000 кадров/сек
Цветовое пространство : YUV
Субдискретизация насыщенности : 4:2:0
Битовая глубина : 8 бит
Тип развёртки : MBAFF
Бит/(Пиксели*Кадры) : 0.360
Размер потока : 1,63 Гбайт (79%)
Библиотека кодирования : x264 core 116 r2019M 9cc407d
Настройки программы : cabac=1 / ref=3 / deblock=1:-1:-1 / analyse=0x3:0x133 / me=hex / subme=7 / psy=1 / psy_rd=1.00:0.15 / mixed_ref=1 / me_range=16 / chroma_me=1 / trellis=1 / 8x8dct=1 / cqm=0 / deadzone=21,11 / fast_pskip=1 / chroma_qp_offset=-3 / threads=8 / sliced_threads=0 / nr=0 / decimate=1 / interlaced=tff / bluray_compat=0 / constrained_intra=0 / bframes=3 / b_pyramid=1 / b_adapt=2 / b_bias=0 / direct=3 / weightb=1 / open_gop=0 / weightp=0 / keyint=250 / keyint_min=25 / scenecut=40 / intra_refresh=0 / rc_lookahead=40 / rc=abr / mbtree=1 / bitrate=2800 / ratetol=1.0 / qcomp=0.60 / qpmin=10 / qpmax=51 / qpstep=4 / vbv_maxrate=9000 / vbv_bufsize=1835 / nal_hrd=none / ip_ratio=1.40 / aq=1:1.00
Язык : French
Default : Да
Forced : Нет

Аудио #1
Идентификатор : 2
Формат : AC-3
Формат/Информация : Audio Coding 3
Расширение режима : CM (complete main)
Режим смешивания : Header stripping
Идентификатор кодека : A_AC3
Продолжительность : 1 ч. 25 м.
Вид битрейта : Постоянный
Битрейт : 192 Кбит/сек
Каналы : 2 канала
Расположение каналов : Front: L R
Частота : 48,0 КГц
Битовая глубина : 16 бит
Метод сжатия : С потерями
Размер потока : 118 Мбайт (6%)
Заголовок : DUB
Язык : Russian
Default : Да
Forced : Нет

Аудио #2
Идентификатор : 3
Формат : AC-3
Формат/Информация : Audio Coding 3
Расширение режима : CM (complete main)
Режим смешивания : Header stripping
Идентификатор кодека : A_AC3
Продолжительность : 1 ч. 25 м.
Вид битрейта : Постоянный
Битрейт : 256 Кбит/сек
Каналы : 2 канала
Расположение каналов : Front: L R
Частота : 48,0 КГц
Битовая глубина : 16 бит
Метод сжатия : С потерями
Размер потока : 157 Мбайт (7%)
Заголовок : DUB
Язык : Russian
Default : Нет
Forced : Нет

Аудио #3
Идентификатор : 4
Формат : AC-3
Формат/Информация : Audio Coding 3
Расширение режима : CM (complete main)
Режим смешивания : Header stripping
Идентификатор кодека : A_AC3
Продолжительность : 1 ч. 25 м.
Вид битрейта : Постоянный
Битрейт : 224 Кбит/сек
Каналы : 2 канала
Расположение каналов : Front: L R
Частота : 48,0 КГц
Битовая глубина : 16 бит
Метод сжатия : С потерями
Размер потока : 138 Мбайт (6%)
Заголовок : FRE
Язык : French
Default : Нет
Forced : Нет

Текст
Идентификатор : 5
Формат : UTF-8
Идентификатор кодека : S_TEXT/UTF8
Идентификатор кодека/Информация : UTF-8 Plain Text
Язык : Russian
Default : Да
Forced : Нет



















Поделиться:




реклама партнёра


Вернуться к началу
 Профиль Отправить личное сообщение  
 
   Похожие торренты   Автор   Торрент   Размер 
В этой теме нет новых непрочитанных сообщений. Черный ящик / La Boîte noire [триллер, детектив, 2005] HDRip, Mvo

salma3

939 | 281

1.73 ГБ

В этой теме нет новых непрочитанных сообщений. Черный ящик / La Boîte noire (Ришар Берри / Richard Berry) [2005г., Франция, триллер, детектив, мистика, HDTV 1080i] MVO

Alfredovich

16 | 8

3.8 ГБ

В этой теме нет новых непрочитанных сообщений. Черная месса / La noche del terror ciego [ужасы, детектив, 1972] DVDRip-AVC, Avo

salma3

31 | 6

1.47 ГБ

В этой теме нет новых непрочитанных сообщений. 21 ночь с Патти / Vingt et une nuits avec Pattie [комедия, 2015] BDRemux 1080p, Avo

salma3

0 | 4

25.42 ГБ

В этой теме нет новых непрочитанных сообщений. Диалог с моим садовником / Разговор с моим садовником / Dialogue avec mon jardinier / Conversations with My Gardener (Жан Бекер / Jean Becker) [2007г., Франция, драма, комедия, DVDRip] MVO

Alfredovich

50 | 4

1.45 ГБ

В этой теме нет новых непрочитанных сообщений. Большое алиби / Le grand alibi [Детектив, 2008] DVDRip, Dvo

salma3

27 | 5

1.31 ГБ

В этой теме нет новых непрочитанных сообщений. Несколько дней со мной / Quelques jours avec moi [драма, мелодрама, комедия, 1988] BDRip 720p, Mvo

salma3

9 | 3

6.39 ГБ


Начать новую тему Ответить на тему  [ 1 сообщение ] 




Для Мосгорсуда, Роскомнадзора и рекламодателей:: mosgorsud-torrent[собачка]yandex.ru