Торрент файл
скачать торрент магнет ссылка Добавлен: 15 янв 2012, 22:09
Размер: 2.06 ГБ
Сидеров: 16
Личеров: 7
Автор

СообщениеДобавлено: 15 янв 2012, 22:09 

Не в сети
Супермодератор
Аватара пользователя
Дата регистрации:
11 апр 2010, 18:10
Спасибо: 5802 / 7
Сообщения: 56779
Поезд ужасов / Horror Express

Перевод: Профессиональный (одноголосый), cубтитры: отсутствуют
Формат: HDRip, MKV, H.264, AC3
Страна: Великобритания, Испания
Режиссер: Эудженио Мартин
Жанр: ужасы, фантастика
Продолжительность: 01:27:45
Год выпуска: 1973
В ролях: Кристофер Ли, Питер Кашинг, Альберто де Мендоса, Сильвия Тортоза, Хулио Пенья, Анхель дель Позо, Телли Савалас, Хельга Лине, Элис Рейнхарт, Хосе Хаспе
Описание: 1906 год. Геологическая экспедиция находит в глухом районе Китая захоронение. Останки грузятся в Пекине на транссибирский экспресс. Уже при погрузке русский священник утверждает, что там нечистая сила.

Видео: 1200x720 (1,674:1), 24,000 fps, MPEG4 AVC (х264), High@L4.1 ~3000 kbps avg, 0.145 bit/pixel
Аудио#1:Русский: 48 kHz,AC-3, 2 ch, ~192.00 kbps avg [Профессиональный (одноголосый) Андрей Ярославцев]
Аудио#2:Английский: 48 kHz,AC-3, 2 ch, ~192.00 kbps avg [Оригинал]


Автор РИПа:
Фильм «Поезд ужасов» находится в списке 500 лучших...

Общее
Уникальный идентификатор : 180866411438107103491334896832955193120 (0x88119A90D1795D6E81EFF5C3C6DE9720)
Полное имя : f:\Downloads\horror_express_[tfile.ru].mkv
Формат : Matroska
Версия формата : Version 2
Размер файла : 2,06 Гбайт
Продолжительность : 1 ч. 27 м.
Общий поток : 3354 Кбит/сек
Дата кодирования : UTC 2011-12-07 13:11:01
Программа кодирования : mkvmerge v4.6.0 ('Still Crazy After All These Years') сборка от Mar 10 2011 02:50:32
Библиотека кодирования : libebml v1.2.0 + libmatroska v1.1.0

Видео
Идентификатор : 1
Формат : AVC
Формат/Информация : Advanced Video Codec
Профиль формата : High@L4.1
Параметр CABAC формата : Да
Параметр ReFrames формата : 3 кадра
Режим смешивания : Header stripping
Идентификатор кодека : V_MPEG4/ISO/AVC
Продолжительность : 1 ч. 27 м.
Битрейт : 3000 Кбит/сек
Ширина : 1200 пикселей
Высота : 720 пикселей
Соотношение сторон : 1,674
Соотношение сторон в оригинале : 1,673
Режим частоты кадров : Переменный
Частота кадров : 24,000 кадра/сек
Цветовое пространство : YUV
Субдискретизация насыщенности : 4:2:0
Битовая глубина : 8 бит
Тип развёртки : Прогрессивная
Бит/(Пиксели*Кадры) : 0.145
Размер потока : 1,78 Гбайт (87%)
Библиотека кодирования : x264 core 116 r2019M 9cc407d
Настройки программы : cabac=1 / ref=3 / deblock=1:-1:-1 / analyse=0x3:0x133 / me=hex / subme=7 / psy=1 / psy_rd=1.00:0.15 / mixed_ref=1 / me_range=16 / chroma_me=1 / trellis=1 / 8x8dct=1 / cqm=0 / deadzone=21,11 / fast_pskip=1 / chroma_qp_offset=-3 / threads=8 / sliced_threads=0 / nr=0 / decimate=1 / interlaced=0 / bluray_compat=0 / constrained_intra=0 / bframes=3 / b_pyramid=1 / b_adapt=2 / b_bias=0 / direct=3 / weightb=1 / open_gop=0 / weightp=2 / keyint=240 / keyint_min=24 / scenecut=40 / intra_refresh=0 / rc_lookahead=40 / rc=abr / mbtree=1 / bitrate=3000 / ratetol=1.0 / qcomp=0.60 / qpmin=10 / qpmax=51 / qpstep=4 / vbv_maxrate=31250 / vbv_bufsize=31250 / nal_hrd=none / ip_ratio=1.40 / aq=1:1.00
Язык : English
Default : Да
Forced : Нет

Аудио #1
Идентификатор : 2
Формат : AC-3
Формат/Информация : Audio Coding 3
Расширение режима : CM (complete main)
Режим смешивания : Header stripping
Идентификатор кодека : A_AC3
Продолжительность : 1 ч. 27 м.
Вид битрейта : Постоянный
Битрейт : 192 Кбит/сек
Каналы : 2 канала
Расположение каналов : Front: L R
Частота : 48,0 КГц
Битовая глубина : 16 бит
Метод сжатия : С потерями
Размер потока : 121 Мбайт (6%)
Язык : Russian
Default : Да
Forced : Нет

Аудио #2
Идентификатор : 3
Формат : AC-3
Формат/Информация : Audio Coding 3
Расширение режима : CM (complete main)
Режим смешивания : Header stripping
Идентификатор кодека : A_AC3
Продолжительность : 1 ч. 27 м.
Вид битрейта : Постоянный
Битрейт : 192 Кбит/сек
Каналы : 2 канала
Расположение каналов : Front: L R
Частота : 48,0 КГц
Битовая глубина : 16 бит
Метод сжатия : С потерями
Размер потока : 121 Мбайт (6%)
Язык : English
Default : Нет
Forced : Нет

Меню
00:00:00.000 : en:00:00:00.000
00:07:32.500 : en:00:07:32.500
00:12:58.292 : en:00:12:58.292
00:19:38.792 : en:00:19:38.792
00:23:52.583 : en:00:23:52.583
00:30:01.583 : en:00:30:01.583
00:35:00.583 : en:00:35:00.583
00:41:31.708 : en:00:41:31.708
00:47:37.208 : en:00:47:37.208
00:54:27.250 : en:00:54:27.250
00:59:12.167 : en:00:59:12.167
01:05:16.792 : en:01:05:16.792
01:11:59.292 : en:01:11:59.292
01:16:48.583 : en:01:16:48.583
01:20:34.583 : en:01:20:34.583
01:23:56.417 : en:01:23:56.417
01:26:25.000 : en:01:26:25.000


















Поделиться:




реклама партнёра


Вернуться к началу
 Профиль Отправить личное сообщение  
 
   Похожие торренты   Автор   Торрент   Размер 
В этой теме нет новых непрочитанных сообщений. История ужасов / Horror Story [Ужасы, 2013] DVDRip, Dvo

salma3

5 | 4

1.48 ГБ

В этой теме нет новых непрочитанных сообщений. Истории ужасов 2 / Horror Stories 2 / Mooseowon Iyagi 2 [ужасы, 2013] DVDRip, dvo

Dracon

5 | 2

1.33 ГБ

В этой теме нет новых непрочитанных сообщений. Поезд / The Train [Horror, Quest, 3D, 2013] [RePack]

Sykre

9 | 3

370.57 МБ

В этой теме нет новых непрочитанных сообщений. Шоу ужасов Рокки Хоррора / The Rocky Horror Picture Show [комедия, мюзикл, 1975] BDRip 720p, Mvo+Sub

salma3

16 | 2

4.68 ГБ

В этой теме нет новых непрочитанных сообщений. Калейдоскоп ужасов 3 / Creepshow III [Ужасы, Комедия, Фантастика, 2006] DVDRip, Avo

salma3

3 | 5

1.45 ГБ

В этой теме нет новых непрочитанных сообщений. Франкенштейн и монстр из ада / Frankenstein and the Monster from Hell [Ужасы, фантастика, 1973] BDRip, Mvo

salma3

3 | 1

1.46 ГБ

В этой теме нет новых непрочитанных сообщений. Дом ужасов / The Scarehouse (Гэвин Бут) [ужасы, боевик, триллер, 2014] WEB-DLRip, dvo

Dracon

2 | 3

1.46 ГБ


Начать новую тему Ответить на тему  [ 1 сообщение ] 




Для Мосгорсуда, Роскомнадзора и рекламодателей:: mosgorsud-torrent[собачка]yandex.ru