Торрент файл
скачать торрент магнет ссылка Добавлен: 15 янв 2012, 22:09
Размер: 2.19 ГБ
Сидеров: 15
Личеров: 6
Автор

СообщениеДобавлено: 15 янв 2012, 22:09 

Не в сети
Супермодератор
Аватара пользователя
Дата регистрации:
11 апр 2010, 18:10
Спасибо: 5801 / 7
Сообщения: 56779
Фараон / Faraon

Перевод: Профессиональный (полное дублирование), cубтитры: Английские (полные, отключаемые)
Формат: DVDRip, MKV, H.264, AC3
Страна: Польша
Режиссер: Ежи Кавалерович
Жанр: драма, исторический
Продолжительность: 02:24:52
Год выпуска: 1965
В ролях: Ежи Зельник, Веслава Мазуркевич, Барбара Брыльска, Кристина Миколаевска, Эва Кшижевска, Петр Павловский, Лешек Хердеген, Станислав Мильский, Казимеж Опалиньский, Мечислав Войт
Описание: На заре цивилизации, когда Древний Египет еще правил миром, люди любили и боролись за власть также, как и в наши дни. Фараоны уже не так всесильны, как раньше, их казна пуста, а сокровищницы жрецов ломятся от золота.
Любовь и ненависть сжигают сердца юного фараона Рамзеса XIII, бесстрашного воина и пылкого влюбленного. Любовь к двум женщинам не приносит ему счастья. Сын от еврейки Сары не может стать наследником трона, жрица Кама не имеет права на плотскую любовь.
Главная его страсть-ненависть к касте всемогущих жрецов. Он хочет наступить на горло их власти. Но смерть ждет тех, кто пойдет против них. Верховный жрец Херхор готовит двойника Рамзеса для убийства и замены подлинного фараона…


Видео: 720x320 (2,222:1), 25,000 fps, MPEG4 AVC (х264), High@L4.1 ~1900 kbps avg, 0.330 bit/pixel
Аудио: 48 kHz,AC-3, 2 ch, ~256.00 kbps avg


Автор РИПа:
Награды:
Оскар, 1967 год
Номинации (1):
Лучший фильм на иностранном языке — «Польша»
Каннский кинофестиваль, 1966 год
Номинации (1):
Золотая пальмовая ветвь

Общее
Уникальный идентификатор : 196772651343701319935212049020947628135 (0x940908BDC9A633B796F47A9445298067)
Полное имя : f:\Downloads\faraon_[tfile.ru].mkv
Формат : Matroska
Версия формата : Version 2
Размер файла : 2,19 Гбайт
Продолжительность : 2 ч. 24 м.
Общий поток : 2159 Кбит/сек
Дата кодирования : UTC 2011-12-16 03:25:01
Программа кодирования : mkvmerge v4.6.0 ('Still Crazy After All These Years') сборка от Mar 10 2011 02:50:32
Библиотека кодирования : libebml v1.2.0 + libmatroska v1.1.0

Видео
Идентификатор : 1
Формат : AVC
Формат/Информация : Advanced Video Codec
Профиль формата : High@L4.1
Параметр CABAC формата : Да
Параметр ReFrames формата : 3 кадра
Режим смешивания : Header stripping
Идентификатор кодека : V_MPEG4/ISO/AVC
Продолжительность : 2 ч. 24 м.
Битрейт : 1900 Кбит/сек
Ширина : 720 пикселей
Высота : 320 пикселей
Соотношение сторон : 2,222
Соотношение сторон в оригинале : 2,225
Режим частоты кадров : Переменный
Частота кадров : 25,000 кадров/сек
Цветовое пространство : YUV
Субдискретизация насыщенности : 4:2:0
Битовая глубина : 8 бит
Тип развёртки : Прогрессивная
Бит/(Пиксели*Кадры) : 0.330
Размер потока : 1,88 Гбайт (86%)
Библиотека кодирования : x264 core 116 r2019M 9cc407d
Настройки программы : cabac=1 / ref=3 / deblock=1:-1:-1 / analyse=0x3:0x133 / me=hex / subme=7 / psy=1 / psy_rd=1.00:0.15 / mixed_ref=1 / me_range=16 / chroma_me=1 / trellis=1 / 8x8dct=1 / cqm=0 / deadzone=21,11 / fast_pskip=1 / chroma_qp_offset=-3 / threads=8 / sliced_threads=0 / nr=0 / decimate=1 / interlaced=0 / bluray_compat=0 / constrained_intra=0 / bframes=3 / b_pyramid=1 / b_adapt=2 / b_bias=0 / direct=3 / weightb=1 / open_gop=0 / weightp=2 / keyint=250 / keyint_min=25 / scenecut=40 / intra_refresh=0 / rc_lookahead=40 / rc=abr / mbtree=1 / bitrate=1900 / ratetol=1.0 / qcomp=0.60 / qpmin=10 / qpmax=51 / qpstep=4 / vbv_maxrate=9000 / vbv_bufsize=1835 / nal_hrd=none / ip_ratio=1.40 / aq=1:1.00
Язык : Polish
Default : Да
Forced : Нет

Аудио
Идентификатор : 2
Формат : AC-3
Формат/Информация : Audio Coding 3
Расширение режима : CM (complete main)
Режим смешивания : Header stripping
Идентификатор кодека : A_AC3
Продолжительность : 2 ч. 24 м.
Вид битрейта : Постоянный
Битрейт : 256 Кбит/сек
Каналы : 2 канала
Расположение каналов : Front: L R
Частота : 48,0 КГц
Битовая глубина : 16 бит
Метод сжатия : С потерями
Размер потока : 265 Мбайт (12%)
Заголовок : DUB
Язык : Russian
Default : Да
Forced : Нет

Текст
Идентификатор : 3
Формат : VobSub
Режим смешивания : zlib
Идентификатор кодека : S_VOBSUB
Идентификатор кодека/Информация : The same subtitle format used on DVDs
Язык : English
Default : Да
Forced : Нет


















Поделиться:




реклама партнёра


Вернуться к началу
 Профиль Отправить личное сообщение  
 
   Похожие торренты   Автор   Торрент   Размер 
В этой теме нет новых непрочитанных сообщений. Херхор ("Фараон" Ежи Кавалерович) Алексей Меняйлов [2012, психологический анализ фильма, WEBRip] фильм о фильме

vairgin

7 | 3

1.64 ГБ

В этой теме нет новых непрочитанных сообщений. Любовь в Кашмире / Arzoo [мюзикл, драма, мелодрама, 1965] DVDRip, Dub

salma3

11 | 5

2.19 ГБ

В этой теме нет новых непрочитанных сообщений. Я и Наполеон / N (Io e Napoleone) [драма, комедия, исторический, 2006] DVDRip, Mvo

salma3

17 | 5

1.46 ГБ

В этой теме нет новых непрочитанных сообщений. Уж лучше в Швецию! / I'll Take Sweden [Комедия, 1965] DVDRip, Dvo

salma3

20 | 4

1.37 ГБ

В этой теме нет новых непрочитанных сообщений. Бесчеловечный / Janwar [мюзикл, мелодрама, 1965] DVDRip, Avo+Sub

salma3

1 | 4

1.46 ГБ

В этой теме нет новых непрочитанных сообщений. Кабеса де Вака / Cabeza de Vaca [драма, приключения, исторический, 1991] DVDRip, Avo+Sub

salma3

20 | 3

1.32 ГБ

В этой теме нет новых непрочитанных сообщений. Разорванная цепь / The Broken Chain [Вестерн, драма, исторический, 1993] DVDRip, Avo

salma3

32 | 4

1.37 ГБ


Начать новую тему Ответить на тему  [ 1 сообщение ] 




Для Мосгорсуда, Роскомнадзора и рекламодателей:: mosgorsud-torrent[собачка]yandex.ru