Торрент файл
скачать торрент магнет ссылка Добавлен: 15 янв 2012, 22:08
Размер: 2.89 ГБ
Сидеров: 2
Личеров: 4
Автор

СообщениеДобавлено: 15 янв 2012, 22:08 

Не в сети
Супермодератор
Аватара пользователя
Дата регистрации:
11 апр 2010, 18:10
Спасибо: 5963 / 7
Сообщения: 56762
Египтянин / The Egyptian

Перевод: Профессиональный (многоголосый, закадровый), cубтитры: отсутствуют
Формат: HDRip, MKV, H.264, AC3
Страна: США
Режиссер: Майкл Кёртиц
Жанр: драма, история
Продолжительность: 02:19:39
Год выпуска: 1954
В ролях: Джин Симмонс, Виктор Мэтьюр, Джин Тирни, Майкл Уайлдинг, Белла Дарви, Питер Устинов, Эдмунд Пурдом, Джудит Эвелин, Генри Дэниелл, Джон Кэррадайн
Описание: Египет XIV век до нашей эры. Страной правит фараон Аменхотеп IV, решивший изменить религию многобожия на поклонение единому божеству Атону. Культ Атона небыл принят ни священнослужителями, ни жителями Египта и вызвал огромное негодование.
В это же время Синух молодой египтянин выбирает профессию врача, и волею судьбы назначается лекарем самого Фараона. Он становится невольным участником дворцовых интриг, заговоров и предательств.


Видео: 1280x502 (2,55:1), 23,976 fps, MPEG4 AVC (х264), High@L4.1 ~2000 kbps avg, 0.130 bit/pixel
Аудио#1:Русский: 48 kHz,AC-3, 2 ch, ~192.00 kbps avg [Профессиональный (многоголосый, закадровый, Петербург 5-й канал)]
Аудио#2:Русский: 48 kHz,AC-3, 6 ch, ~384.00 kbps avg [Внешним файлом: Двухголосый закадровый ( П.Гланц и И.Королёва)]
Аудио#3:Английский: 48 kHz,AC-3, 6 ch, ~384.00 kbps avg [Внешним файлом:Оригинал]


Автор РИПа:
Награды:
Оскар, 1955 год
Номинации (1):
Лучшая работа оператора (цветные фильмы)
Золотой глобус, 1954 год
Победитель (1):
Самый многообещающий новичок среди женщин (Белла Дарви)

Мэрилин Монро жаждала получить роль Нефер, которая, однако, была закреплена за протеже продюсера Бэллой Дарви. Это был второй из всего трёх фильмов Дарви. Впоследствии она вернулась в Европу, где покончила с собой в 1971 году.

Общее
Уникальный идентификатор : 231442560414189746385311438760321656366 (0xAE1E373B70AA96C582B26FBF8EE6A62E)
Полное имя : f:\Downloads\the_egyptian_[tfile.ru]\the_egyptian_[tfile.ru].mkv
Формат : Matroska
Версия формата : Version 2
Размер файла : 2,14 Гбайт
Продолжительность : 2 ч. 19 м.
Общий поток : 2192 Кбит/сек
Дата кодирования : UTC 2011-12-20 20:35:19
Программа кодирования : mkvmerge v4.6.0 ('Still Crazy After All These Years') сборка от Mar 10 2011 02:50:32
Библиотека кодирования : libebml v1.2.0 + libmatroska v1.1.0

Видео
Идентификатор : 1
Формат : AVC
Формат/Информация : Advanced Video Codec
Профиль формата : High@L4.1
Параметр CABAC формата : Да
Параметр ReFrames формата : 3 кадра
Режим смешивания : Header stripping
Идентификатор кодека : V_MPEG4/ISO/AVC
Продолжительность : 2 ч. 19 м.
Битрейт : 2000 Кбит/сек
Ширина : 1280 пикселей
Высота : 502 пикселя
Соотношение сторон : 2,550
Режим частоты кадров : Переменный
Частота кадров : 23,976 кадра/сек
Цветовое пространство : YUV
Субдискретизация насыщенности : 4:2:0
Битовая глубина : 8 бит
Тип развёртки : Прогрессивная
Бит/(Пиксели*Кадры) : 0.130
Размер потока : 1,91 Гбайт (89%)
Библиотека кодирования : x264 core 116 r2019M 9cc407d
Настройки программы : cabac=1 / ref=3 / deblock=1:-1:-1 / analyse=0x3:0x133 / me=hex / subme=7 / psy=1 / psy_rd=1.00:0.15 / mixed_ref=1 / me_range=16 / chroma_me=1 / trellis=1 / 8x8dct=1 / cqm=0 / deadzone=21,11 / fast_pskip=1 / chroma_qp_offset=-3 / threads=8 / sliced_threads=0 / nr=0 / decimate=1 / interlaced=0 / bluray_compat=0 / constrained_intra=0 / bframes=3 / b_pyramid=1 / b_adapt=2 / b_bias=0 / direct=3 / weightb=1 / open_gop=0 / weightp=2 / keyint=230 / keyint_min=23 / scenecut=40 / intra_refresh=0 / rc_lookahead=40 / rc=abr / mbtree=1 / bitrate=2000 / ratetol=1.0 / qcomp=0.60 / qpmin=10 / qpmax=51 / qpstep=4 / vbv_maxrate=9000 / vbv_bufsize=1835 / nal_hrd=none / ip_ratio=1.40 / aq=1:1.00
Язык : English
Default : Да
Forced : Нет

Аудио
Идентификатор : 2
Формат : AC-3
Формат/Информация : Audio Coding 3
Расширение режима : CM (complete main)
Режим смешивания : Header stripping
Идентификатор кодека : A_AC3
Продолжительность : 2 ч. 19 м.
Вид битрейта : Постоянный
Битрейт : 192 Кбит/сек
Каналы : 2 канала
Расположение каналов : Front: L R
Частота : 48,0 КГц
Битовая глубина : 16 бит
Метод сжатия : С потерями
Размер потока : 192 Мбайт (9%)
Заголовок : MVO
Язык : Russian
Default : Да
Forced : Нет

Меню
00:00:00.000 : en:00:00:00.000
00:10:00.600 : en:00:10:00.600
00:20:01.200 : en:00:20:01.200
00:30:01.800 : en:00:30:01.800
00:40:02.400 : en:00:40:02.400
00:50:03.000 : en:00:50:03.000
01:00:03.600 : en:01:00:03.600
01:10:04.200 : en:01:10:04.200
01:20:04.800 : en:01:20:04.800
01:30:05.400 : en:01:30:05.400
01:40:06.000 : en:01:40:06.000
01:50:06.600 : en:01:50:06.600
02:00:07.200 : en:02:00:07.200
02:10:07.800 : en:02:10:07.800















Поделиться:




реклама партнёра


Вернуться к началу
 Профиль Отправить личное сообщение  
 
   Похожие торренты   Автор   Торрент   Размер 
В этой теме нет новых непрочитанных сообщений. Экспериментатор / Experimenter (Майкл Алмерейда) [драма, биография, история, 2015] HDRip [Ozz]

Dracon

173 | 6

1.37 ГБ

В этой теме нет новых непрочитанных сообщений. Черный щит Фолуорта / The Black Shield of Falworth [мелодрама, приключения, история, 1954] BDRip 720p, Mvo

salma3

27 | 3

4.37 ГБ

В этой теме нет новых непрочитанных сообщений. Экспериментатор / Experimenter (Майкл Алмерейда) [драма, биография, история, 2015] WEB-DL 720p [Ozz]

Dracon

3011 | 168

2.96 ГБ

В этой теме нет новых непрочитанных сообщений. Фронтера / Frontera (Майкл Берри) [Драма, 2014] HDRip, Mvo

Dracon

92 | 2

1.37 ГБ

В этой теме нет новых непрочитанных сообщений. Лучшее во мне /  The Best of Me (Майкл Хоффман) [Драма, Мелодрама, 2014] HDRip, Dub [iTunes]

Dracon

6 | 3

1.46 ГБ

В этой теме нет новых непрочитанных сообщений. Цимбелин / Cymbeline (Майкл Алмерейда) [драма, 2014] HDRip, Dub [Лицензия]

Dracon

22 | 1

2.05 ГБ

В этой теме нет новых непрочитанных сообщений. Цимбелин / Cymbeline (Майкл Алмерейда) [драма, 2014] HDRip, Dub [Лицензия]

Dracon

509 | 31

1.46 ГБ


Начать новую тему Ответить на тему  [ 1 сообщение ] 




Для Мосгорсуда, Роскомнадзора и рекламодателей:: mosgorsud-torrent[собачка]yandex.ru