Торрент файл
скачать торрент магнет ссылка Добавлен: 15 янв 2012, 22:08
Размер: 2.16 ГБ
Сидеров: 1
Личеров: 4
Автор

СообщениеДобавлено: 15 янв 2012, 22:08 

Не в сети
Супермодератор
Аватара пользователя
Дата регистрации:
11 апр 2010, 18:10
Спасибо: 5801 / 7
Сообщения: 56779
Язон и аргонавты / Jason and the Argonauts

Перевод: Профессиональный (многоголосый, закадровый), cубтитры: Английские (полные, отключаемые)
Формат: HDRip, MKV, H.264, AC3
Страна: США, Великобритания
Режиссер: Дон Чэффи
Жанр: фэнтези, боевик, приключения, семейный
Продолжительность: 01:43:54
Год выпуска: 1963
В ролях: Тодд Армстронг, Нэнси Ковак, Гари Рэймонд, Лоуренс Нэйсмит, Ниалл МакГиннис, Майкл Гвинн, Дуглас Уилмер, Джек Гвиллим, Хонор Блэкмен, Джон Кэйрни
Описание: Сюжет построен на основе знаменитого древнегреческого мифа о герое Язоне (Ясоне), отправившимся «со товарищи», прозванными аргонавтами в честь их корабля «Арго», на поиски Золотого Руна.

Видео: 1200x720 (1,667:1), 23,976 fps, MPEG4 AVC (х264), High@L4.1 ~2700 kbps avg, 0.130 bit/pixel
Аудио#1:Русский: 48 kHz,AC-3, 1 ch, ~128.00 kbps avg [Профессиональный (многоголосый, закадровый) (ТВ5)]
Аудио#4:Русский: 48 kHz,AC-3, 1 ch, ~128.00 kbps avg [Профессиональный (двухголосый, закадровый) (DVD Magic)]


Автор РИПа:
Постановка сцены схватки со скелетами, которая длится не более трёх минут экранного времени, заняла целых четыре месяца. И тогда и даже сейчас спустя несколько десятков лет работа Рэя Харрихаусена в ней признаётся вершиной визуальных спецэффектов в кино.

Щиты воинов-скелетов используют в своём дизайне изображения других существ, воссозданных Рэем Харрихаусеном, включая гигантского осьминога и голову Имира из фантастической киноленты «20 миллионов миль от Земли».

Стремясь воспользоваться успехом картины «Седьмое путешествие Синдбада» (195 оригинальной задумкой режиссёра было создание сиквела с названием «Синдбад в эпоху Муз». Действие сюжета должно было разворачиваться в Древней Греции, а главным героем стать Синдбад, примкнувший к походу аргонавтов.

Голос Тодда Армстронга, сыгравшего Язона, был дублирован британским актёром Тимом Тёрнером. Он приобрёл большую известность чтением закадровых текстов во многих британских фильмах 50-70-х годов и популярных телесериалах того периода.

В США предыдущие работы Рэя Харрихаусена в большинстве своём показывались в качестве одного из фильмов на сдвоенных сеансах во второразрядных кинотеатрах. В то же время для «Язона и аргонавтов» студия Columbia Pictures смогла забронировать многие кинотеатры высшего разряда с одиночными показами.

На ранних стадиях разработки сюжета картины аргонавтам предстояло встретиться с монстрами-близнецами Сциллой и Харибдой, трёхглавым псом Цербером и кентавром.

Голос Нэнси Ковак, сыгравшей Медею, был дублирован Евой Хаддон, известной в те годы по работе на радио BBC.

Во время съёмок плавания «Арго» у берегов Италии работа неожиданно была прервана появлением в кадре точной копии средневекового галеона Френсиса Дрейка «Золотая Лань». Как оказалось рядом проходили съёмки британского сериала «Сэр Френсис Дрейк» (1961) и по ошибке два корабля оказались совсем близко друг от друга. Последовавшее вслед за этим обоюдное замешательство удалось разрядить продюсеру Чарльзу Х. Шнееру, который находчиво крикнул «Убирайтесь со своим кораблём отсюда. Вы заплыли не в то столетие».

Съёмки картины проходили в сентябре-октябре 1961 года в Италии, а затем в павильонах Shepperton Studios в Англии.

Общее
Уникальный идентификатор : 210804184480070198953471024573087068172 (0x9E9768BCB175EABE82DFD641E059B00C)
Полное имя : f:\Downloads\jason_and_the_argonauts_[tfile.ru].mkv
Формат : Matroska
Версия формата : Version 2
Размер файла : 2,16 Гбайт
Продолжительность : 1 ч. 43 м.
Общий поток : 2977 Кбит/сек
Дата кодирования : UTC 2011-12-21 15:32:35
Программа кодирования : mkvmerge v4.6.0 ('Still Crazy After All These Years') сборка от Mar 10 2011 02:50:32
Библиотека кодирования : libebml v1.2.0 + libmatroska v1.1.0

Видео
Идентификатор : 1
Формат : AVC
Формат/Информация : Advanced Video Codec
Профиль формата : High@L4.1
Параметр CABAC формата : Да
Параметр ReFrames формата : 3 кадра
Режим смешивания : Header stripping
Идентификатор кодека : V_MPEG4/ISO/AVC
Продолжительность : 1 ч. 43 м.
Битрейт : 2700 Кбит/сек
Ширина : 1200 пикселей
Высота : 720 пикселей
Соотношение сторон : 1,667
Режим частоты кадров : Переменный
Частота кадров : 23,976 кадра/сек
Цветовое пространство : YUV
Субдискретизация насыщенности : 4:2:0
Битовая глубина : 8 бит
Тип развёртки : Прогрессивная
Бит/(Пиксели*Кадры) : 0.130
Размер потока : 1,93 Гбайт (89%)
Библиотека кодирования : x264 core 116 r2019M 9cc407d
Настройки программы : cabac=1 / ref=3 / deblock=1:-1:-1 / analyse=0x3:0x133 / me=hex / subme=7 / psy=1 / psy_rd=1.00:0.15 / mixed_ref=1 / me_range=16 / chroma_me=1 / trellis=1 / 8x8dct=1 / cqm=0 / deadzone=21,11 / fast_pskip=1 / chroma_qp_offset=-3 / threads=8 / sliced_threads=0 / nr=0 / decimate=1 / interlaced=0 / bluray_compat=0 / constrained_intra=0 / bframes=3 / b_pyramid=1 / b_adapt=2 / b_bias=0 / direct=3 / weightb=1 / open_gop=0 / weightp=2 / keyint=230 / keyint_min=23 / scenecut=40 / intra_refresh=0 / rc_lookahead=40 / rc=abr / mbtree=1 / bitrate=2700 / ratetol=1.0 / qcomp=0.60 / qpmin=10 / qpmax=51 / qpstep=4 / vbv_maxrate=31250 / vbv_bufsize=31250 / nal_hrd=none / ip_ratio=1.40 / aq=1:1.00
Язык : English
Default : Да
Forced : Нет

Аудио #1
Идентификатор : 2
Формат : AC-3
Формат/Информация : Audio Coding 3
Расширение режима : CM (complete main)
Режим смешивания : Header stripping
Идентификатор кодека : A_AC3
Продолжительность : 1 ч. 43 м.
Вид битрейта : Постоянный
Битрейт : 128 Кбит/сек
Каналы : 1 канал
Расположение каналов : Front: C
Частота : 48,0 КГц
Битовая глубина : 16 бит
Метод сжатия : С потерями
Размер потока : 95,1 Мбайт (4%)
Заголовок : MVO(TB5)
Язык : Russian
Default : Да
Forced : Нет

Аудио #2
Идентификатор : 3
Формат : AC-3
Формат/Информация : Audio Coding 3
Расширение режима : CM (complete main)
Режим смешивания : Header stripping
Идентификатор кодека : A_AC3
Продолжительность : 1 ч. 43 м.
Вид битрейта : Постоянный
Битрейт : 128 Кбит/сек
Каналы : 1 канал
Расположение каналов : Front: C
Частота : 48,0 КГц
Битовая глубина : 16 бит
Метод сжатия : С потерями
Размер потока : 95,1 Мбайт (4%)
Заголовок : MVO(DVD Magic)
Язык : Russian
Default : Нет
Forced : Нет

Текст
Идентификатор : 4
Формат : UTF-8
Идентификатор кодека : S_TEXT/UTF8
Идентификатор кодека/Информация : UTF-8 Plain Text
Язык : English
Default : Да
Forced : Нет

















Поделиться:




реклама партнёра


Вернуться к началу
 Профиль Отправить личное сообщение  
 
   Похожие торренты   Автор   Торрент   Размер 
В этой теме нет новых непрочитанных сообщений. Подвиги Геракла: Медуза Горгона / Perseo l'invincibile [фэнтези, приключения, 1963] DVDRip, Mvo

salma3

24 | 5

1.46 ГБ

В этой теме нет новых непрочитанных сообщений. Джейсон Борн / Jason Bourne [Боевик, триллер, 2016] HDRip-AVC, Dub [Лицензия]

salma3

224 | 65

1.47 ГБ

В этой теме нет новых непрочитанных сообщений. Джейсон Борн / Jason Bourne [боевик, триллер, 2016] HDRip, Dub [Лицензия]

salma3

1839 | 658

2.18 ГБ

В этой теме нет новых непрочитанных сообщений. Джейсон Борн / Jason Bourne [боевик, триллер, 2016] HDRip, Dub [Лицензия]

salma3

3548 | 339

1.46 ГБ

В этой теме нет новых непрочитанных сообщений. Джейсон Борн / Jason Bourne (Пол Гринграсс) [2016, боевик, триллер, HDRip | Лицензия] Dub

marya111

2735 | 278

1.45 ГБ

В этой теме нет новых непрочитанных сообщений. Пит и его дракон / Pete's Dragon [фэнтези, приключения, семейный, 2016] HDRip-AVC, Dub [лицензия]

salma3

540 | 10

1.45 ГБ

В этой теме нет новых непрочитанных сообщений. Пит и его дракон / Pete's Dragon [фэнтези, приключения, семейный, 2016] HDRip, Dub [лицензия]

salma3

839 | 24

1.37 ГБ


Начать новую тему Ответить на тему  [ 1 сообщение ] 




Для Мосгорсуда, Роскомнадзора и рекламодателей:: mosgorsud-torrent[собачка]yandex.ru