Торрент файл
скачать торрент магнет ссылка Добавлен: 15 янв 2012, 22:08
Размер: 1.45 ГБ
Сидеров: 7
Личеров: 4
Автор

СообщениеДобавлено: 15 янв 2012, 22:08 

Не в сети
Супермодератор
Аватара пользователя
Дата регистрации:
11 апр 2010, 18:10
Спасибо: 5799 / 7
Сообщения: 56779
Джек убийца великанов / Jack the Giant Killer

Перевод: Любительский (одноголосый), cубтитры: отсутствуют

Формат: DVDRip-AVC, MKV, H.264, AC3
Страна: США
Режиссер: Натан Юран

Жанр: фэнтези, приключения, семейный
Продолжительность: 01:34:32
Год выпуска: 1962

В ролях: Кервин Мэтьюз, Анна Ли, Уолтер Бурк, Дейтон Ламмис, Роджер Мобли, Дон Беддоу, Бэрри Келли, Торин Тэтчер, Джуди Мередит, Роберт Гист

Описание: Злобный чародей Пендрагон метит на трон Корнуолла, намереваясь украсть королевскую дочку и жениться на ней. С помощью своего подручного великана он похищает принцессу, но на её счастье великан попадается на глаза деревенскому парню, решившему помочь девушке.

__________

Видео: 720x424 (1.698::1), 23,976 fps, AVC(х264), High@L3.1, ~ 2000 Kbps, 0.27 bit/pixel
Аудио: 48.0 kHz, AC3, (Front: L R), 2 ch ~192 Kbps avg

Рип:

Общее
Полное имя: dzhek_ubijca_velikanov_[tfile.ru].mkv
Формат: Matroska
Размер файла: 1,45 Гбайт
Продолжительность: 1 ч. 34 м.
Общий поток: 2194 Кбит/сек
Дата кодирования: UTC 2011-12-22 00:58:51
Программа кодирования: mkvmerge v3.3.0 ('Language') built on Mar 24 2010 14:59:24
Библиотека кодирования: libebml v0.8.0 + libmatroska v0.9.0

Видео
Идентификатор: 1
Формат: AVC
Формат/Информация: Advanced Video Codec
Профиль формата: High@L3.1
Параметр CABAC формата: Да
Параметр ReFrames формата: 8 кадры
Идентификатор кодека: V_MPEG4/ISO/AVC
Продолжительность: 1 ч. 34 м.
Битрейт: 2000 Кбит/сек
Ширина: 720 пикс.
Высота: 424 пикс.
Соотношение сторон: 1,698
Частота кадров: 23,976 кадр/сек
Цветовое пространство: YUV
Подвыборка цветности: 4:2:0
Битовая глубина: 8 бит
Тип развёртки: Прогрессивная
Бит/(Пиксели*Кадры): 0.273
Размер потока: 1,29 Гбайт (89%)
Библиотека кодирования: x264 core 92 r1510 33d382a
Настройки программы: cabac=1 / ref=8 / deblock=1:-1:-1 / analyse=0x3:0x133 / me=umh / subme=7 / psy=1 / psy_rd=1.00:0.10 / mixed_ref=1 / me_range=16 / chroma_me=1 / trellis=2 / 8x8dct=1 / cqm=0 / deadzone=21,11 / fast_pskip=0 / chroma_qp_offset=-3 / threads=3 / sliced_threads=0 / nr=0 / decimate=1 / interlaced=0 / constrained_intra=0 / bframes=3 / b_pyramid=2 / b_adapt=2 / b_bias=0 / direct=3 / wpredb=1 / wpredp=2 / keyint=250 / keyint_min=25 / scenecut=40 / intra_refresh=0 / rc_lookahead=50 / rc=2pass / mbtree=1 / bitrate=2000 / ratetol=1.0 / qcomp=0.60 / qpmin=10 / qpmax=51 / qpstep=4 / cplxblur=20.0 / qblur=0.5 / ip_ratio=1.40 / aq=1:1.00

Аудио
Идентификатор: 2
Формат: AC-3
Формат/Информация: Audio Coding 3
Расширение режима: CM (complete main)
Идентификатор кодека: A_AC3
Продолжительность: 1 ч. 34 м.
Вид битрейта: Постоянный
Битрейт: 192 Кбит/сек
Канал(ы): 2 канала(ов)
Расположение каналов: Front: L R
Частота: 48,0 КГц
Битовая глубина: 16 бит
Метод сжатия: С потерями
Размер потока: 130 Мбайт (9%)









Поделиться:




реклама партнёра


Вернуться к началу
 Профиль Отправить личное сообщение  
 
   Похожие торренты   Автор   Торрент   Размер 
В этой теме нет новых непрочитанных сообщений. Jack The Giant Killer - The Drowning King [EP] [февраль 2011, Metalcore, Deathcore, MP3]

PriZraK

0 | 1

22.8 МБ

В этой теме нет новых непрочитанных сообщений. Джеймс и гигантский персик / James and the Giant Peach [Мюзикл, фэнтези, приключения, семейный, 1996] BDRip 1080p, 2Mvo+Sub

salma3

18 | 5

9.18 ГБ

В этой теме нет новых непрочитанных сообщений. Черный Джек / Black Jack [комедия, приключения, 1979] HDRip, Avo

salma3

245 | 70

1.46 ГБ

В этой теме нет новых непрочитанных сообщений. Бешеный Джек Пират / Mad Jack the Pirate [S01] [Мультсериал, приключения, комедия, 1988-1989] SATRip, Dub

salma3

25 | 4

3.78 ГБ

В этой теме нет новых непрочитанных сообщений. Под псевдонимом: Джек Стронг / Джек Стронг / Jack Strong (Владислав Пасиковский) [2014, Шпионский триллер, BDRip-AVC]

Nickolas3435

277 | 7

2.4 ГБ

В этой теме нет новых непрочитанных сообщений. Под псевдонимом: Джек Стронг / Джек Стронг / Jack Strong [боевик, драма, криминал, детектив, биография, 2014] HDRip, Avo

salma3

269 | 6

1.37 ГБ

В этой теме нет новых непрочитанных сообщений. Сирота-убийца / The Orphan Killer [ужасы, 2011] DVDRip, Avo

salma3

48 | 6

1.46 ГБ


Начать новую тему Ответить на тему  [ 1 сообщение ] 




Для Мосгорсуда, Роскомнадзора и рекламодателей:: mosgorsud-torrent[собачка]yandex.ru