Торрент файл
скачать торрент магнет ссылка Добавлен: 15 янв 2012, 22:04
Размер: 2.7 ГБ
Сидеров: 17
Личеров: 7
Автор

СообщениеДобавлено: 15 янв 2012, 22:04 

Не в сети
Супермодератор
Аватара пользователя
Дата регистрации:
11 апр 2010, 18:10
Спасибо: 5960 / 7
Сообщения: 56765
Кэрри / Carrie

Перевод: Профессиональный (многоголосый, закадровый), cубтитры: Английские (полные, отключаемые)
Формат: HDRip, MKV, H.264, AC3
Страна: США
Режиссер: Брайан Де Пальма
Жанр: драма, мистика, ужасы
Продолжительность: 01:38:10
Год выпуска: 1976
В ролях: Сисси Спейсек, Пайпер Лори, Эми Ирвинг, Уильям Кэтт, Бетти Бакли, Нэнси Аллен, Джон Траволта, П.Дж. Соулз, Присцилла Пойнтер, Сидни Лэссик
Описание: Тихую, робкую и доверчивую Кэрри третируют и обижают в школе и дома. Ребенок, от природы добрый, становится замкнутым и мрачным.
В то же время девочка открывает в себе странные и страшные силы… А сверстники готовят очередную изощренную шутку над Кэрри, даже не подозревая, чем это для них закончится…


Видео: 1280x694 (16:9), 23,976 fps, MPEG4 AVC (х264), High@L4.1 ~3000 kbps avg, 0.141 bit/pixel
Аудио#1:Русский: 48 kHz,AC-3, 2 ch, ~192.00 kbps avg [Профессиональный (многоголосый, закадровый)]
Аудио#2:Русский: 48 kHz,AC-3, 6 ch, ~384.00 kbps avg [Внешним файлом: Авторский (одноголосый, Юрий Живов)]
Аудио#3:Английский: 48 kHz,AC-3, 6 ch, ~384.00 kbps avg [Внешним файлом:Оригинал]


Автор РИПа:
Награды:
Оскар, 1977 год
Номинации (2):
Лучшая женская роль (Сисси Спейсек)
Лучшая женская роль второго плана (Пайпер Лори)
Золотой глобус, 1977 год
Номинации (1):
Лучшая женская роль второго плана (Пайпер Лори)
Сатурн, 1977 год
Номинации (1):
Лучший фильм ужасов

Общее
Уникальный идентификатор : 189544415666610185710624462142092283077 (0x8E98ED3528584F119D1952BD8E0F0CC5)
Полное имя : f:\Downloads\carrie_[tfile.ru]\сarrie_[tfile.ru].mkv
Формат : Matroska
Версия формата : Version 2
Размер файла : 2,18 Гбайт
Продолжительность : 1 ч. 38 м.
Общий поток : 3174 Кбит/сек
Название фильма : Carrie (1976)
Дата кодирования : UTC 2012-01-06 20:13:57
Программа кодирования : mkvmerge v4.6.0 ('Still Crazy After All These Years') сборка от Mar 10 2011 02:50:32
Библиотека кодирования : libebml v1.2.0 + libmatroska v1.1.0

Видео
Идентификатор : 1
Формат : AVC
Формат/Информация : Advanced Video Codec
Профиль формата : High@L4.1
Параметр CABAC формата : Да
Параметр ReFrames формата : 3 кадра
Режим смешивания : Header stripping
Идентификатор кодека : V_MPEG4/ISO/AVC
Продолжительность : 1 ч. 38 м.
Битрейт : 3000 Кбит/сек
Ширина : 1280 пикселей
Высота : 694 пикселя
Соотношение сторон : 16:9
Режим частоты кадров : Переменный
Частота кадров : 23,976 кадра/сек
Цветовое пространство : YUV
Субдискретизация насыщенности : 4:2:0
Битовая глубина : 8 бит
Тип развёртки : Прогрессивная
Бит/(Пиксели*Кадры) : 0.141
Размер потока : 2,00 Гбайт (92%)
Библиотека кодирования : x264 core 116 r2019M 9cc407d
Настройки программы : cabac=1 / ref=3 / deblock=1:-1:-1 / analyse=0x3:0x133 / me=hex / subme=7 / psy=1 / psy_rd=1.00:0.15 / mixed_ref=1 / me_range=16 / chroma_me=1 / trellis=1 / 8x8dct=1 / cqm=0 / deadzone=21,11 / fast_pskip=1 / chroma_qp_offset=-3 / threads=8 / sliced_threads=0 / nr=0 / decimate=1 / interlaced=0 / bluray_compat=0 / constrained_intra=0 / bframes=3 / b_pyramid=1 / b_adapt=2 / b_bias=0 / direct=3 / weightb=1 / open_gop=0 / weightp=2 / keyint=230 / keyint_min=23 / scenecut=40 / intra_refresh=0 / rc_lookahead=40 / rc=abr / mbtree=1 / bitrate=3000 / ratetol=1.0 / qcomp=0.60 / qpmin=10 / qpmax=51 / qpstep=4 / vbv_maxrate=9000 / vbv_bufsize=1835 / nal_hrd=none / ip_ratio=1.40 / aq=1:1.00
Язык : English
Default : Да
Forced : Нет

Аудио
Идентификатор : 2
Формат : AC-3
Формат/Информация : Audio Coding 3
Расширение режима : CM (complete main)
Режим смешивания : Header stripping
Идентификатор кодека : A_AC3
Продолжительность : 1 ч. 38 м.
Вид битрейта : Постоянный
Битрейт : 192 Кбит/сек
Каналы : 2 канала
Расположение каналов : Front: L R
Частота : 48,0 КГц
Битовая глубина : 16 бит
Метод сжатия : С потерями
Размер потока : 135 Мбайт (6%)
Заголовок : MVO
Язык : Russian
Default : Да
Forced : Нет

Текст
Идентификатор : 3
Формат : UTF-8
Идентификатор кодека : S_TEXT/UTF8
Идентификатор кодека/Информация : UTF-8 Plain Text
Язык : English
Default : Нет
Forced : Нет
















Поделиться:




реклама партнёра


Вернуться к началу
 Профиль Отправить личное сообщение  
 
   Похожие торренты   Автор   Торрент   Размер 
В этой теме нет новых непрочитанных сообщений. Кэрри / Carrie [ужасы, триллер, 1976] BDRip 720p, 3Mvo+Avo+Sub

salma3

22 | 3

5.25 ГБ

В этой теме нет новых непрочитанных сообщений. Кэрри Пилби / Carrie Pilby [Драма, комедия, 2016] WEB-DLRip, Mvo

salma3

181 | 45

1.38 ГБ

В этой теме нет новых непрочитанных сообщений. Телекинез / Carrie [триллер, ужасы, драма, 2013] HDRip, Dub [iPad]

salma3

26 | 6

1.36 ГБ

В этой теме нет новых непрочитанных сообщений. Пловцы / Fak wai nai gai thoe [ужасы, триллер, мистика, драма, 2014] HDRip, dvo

Dracon

1 | 3

1.46 ГБ

В этой теме нет новых непрочитанных сообщений. Жилец / Le Locataire / The Tenant [триллер, драма, детектив, мистика, экранизация, 1976] WEB-DL 720p, Mvo

salma3

25 | 4

4.36 ГБ

В этой теме нет новых непрочитанных сообщений. Аббатство Даунтон / Downton Abbey [s05] (Брайан Персивал, Энди Годдар, Брайан Келли и др.)[2014, драма, исторический, WEB-DLRip | BaibaKo]

Nickolas3435

171 | 82

5.83 ГБ

В этой теме нет новых непрочитанных сообщений. Аббатство Даунтон / Downton Abbey [06х01-08 из 08] (Брайан Персивал, Энди Годдар, Брайан Келли) [2015, драма, исторический, WEB-DL 720p | BaibaKo]

Dracon

28 | 21

13.55 ГБ


Начать новую тему Ответить на тему  [ 1 сообщение ] 




Для Мосгорсуда, Роскомнадзора и рекламодателей:: mosgorsud-torrent[собачка]yandex.ru