Торрент файл
скачать торрент магнет ссылка Добавлен: 15 янв 2012, 21:57
Размер: 758.82 МБ
Сидеров: 14
Личеров: 7
Автор

СообщениеДобавлено: 15 янв 2012, 21:57 

Не в сети
Супермодератор
Аватара пользователя
Дата регистрации:
11 апр 2010, 18:10
Спасибо: 5960 / 7
Сообщения: 56765
Большие мамочки: Сын как отец / Big Mommas: Like Father, Like Son

«Momma's got back-up»

Перевод: Профессиональный (полное дублирование)
Cубтитры:отсутствуют
Формат: DVDRip-AVC, MKV, H.264, MP3

Страна: США
Режиссер: Джон Уайтселл
Жанр: комедия

Продолжительность: 01:42:56
Год выпуска: 2011

В ролях: Мартин Лоуренс, Брэндон Т. Джексон, Джессика Лукас, Мишель Энг, Портия Даблдэй, Эмили Риос, Ана Ортиз, Генри Любатти, Лоренцо Пизони, Тони Карран

Описание: На сей раз к Тернеру присоединяется его пасынок Трент, когда они отправляются «под прикрытием» в женскую школу исполнительных видов искусства после того, как Трент становится свидетелем убийства. Представ в виде Большой Мамочки и крупной студентки Шарман, они должны найти убийцу раньше, чем он найдет их.







Видео: 696x296 (2.35:1), 25 fps, AVC MPEG-4 High@L4.1 ~882 kbps avg, 0.17 bit/pixel
Аудио: 48 kHz, MPEG Layer 3, 2 ch, ~128 kbps avg

Релиз-Группа:
Рип от:TswetkOFF
Источник:DVD 9




General
Unique ID: 1939795627231901199111643854198009947 (0x175974EF3795E5A4AF3A55955AFF05B)
Complete name: D:\Films\bolshie_mamochki_[tfile.ru].mkv
Format: Matroska
File size: 759 MiB
Duration: 1h 42mn
Overall bit rate: 1 031 Kbps
Writing application: Lavf52.94.0
Writing library: Lavf52.94.0

Video
ID: 1
Format: AVC
Format/Info: Advanced Video Codec
Format profile: High@L4.1
Format settings, CABAC: Yes
Format settings, ReFrames: 3 frames
Codec ID: V_MPEG4/ISO/AVC
Duration: 1h 42mn
Bit rate: 882 Kbps
Width: 696 pixels
Height: 296 pixels
Display aspect ratio: 2.35:1
Frame rate mode: Variable
Frame rate: 25.000 fps
Color space: YUV
Chroma subsampling: 4:2:0
Bit depth: 8 bits
Scan type: Progressive
Bits/(Pixel*Frame): 0.171
Stream size: 649 MiB (86%)
Writing library: x264 core 113
Encoding settings: cabac=1 / ref=3 / deblock=1:0:0 / analyse=0x3:0x133 / me=hex / subme=7 / psy=1 / psy_rd=1.00:0.00 / mixed_ref=1 / me_range=16 / chroma_me=1 / trellis=1 / 8x8dct=1 / cqm=0 / deadzone=21,11 / fast_pskip=1 / chroma_qp_offset=-2 / threads=2 / sliced_threads=0 / nr=0 / decimate=1 / interlaced=0 / constrained_intra=0 / bframes=3 / b_pyramid=1 / b_adapt=2 / b_bias=0 / direct=3 / weightb=1 / open_gop=0 / weightp=2 / keyint=250 / keyint_min=25 / scenecut=40 / intra_refresh=0 / rc_lookahead=40 / rc=crf / mbtree=1 / crf=21.0 / qcomp=0.60 / qpmin=10 / qpmax=51 / qpstep=4 / ip_ratio=1.40 / aq=1:1.00
Language: English

Audio
ID: 2
Format: MPEG Audio
Format version: Version 1
Format profile: Layer 3
Mode: Joint stereo
Mode extension: MS Stereo
Codec ID: A_MPEG/L3
Codec ID/Hint: MP3
Duration: 1h 42mn
Bit rate mode: Constant
Bit rate: 128 Kbps
Channel(s): 2 channels
Sampling rate: 48.0 KHz
Compression mode: Lossy
Stream size: 94.2 MiB (12%)
Writing library: LAME3.98.2
Language: English








Поделиться:




реклама партнёра


Вернуться к началу
 Профиль Отправить личное сообщение  
 
   Похожие торренты   Автор   Торрент   Размер 
В этой теме нет новых непрочитанных сообщений. Мой отец – герой / My Father the Hero [мелодрама, комедия, 1994] BDRip 1080p, Mvo+Avo+Sub

salma3

0 | 0

8 ГБ

В этой теме нет новых непрочитанных сообщений. Кровный отец / Blood Father [Боевик, триллер, 2016] HDRip-AVC, mvo

marya111

61 | 0

749.23 МБ

В этой теме нет новых непрочитанных сообщений. Кровный отец / Blood Father [Боевик, триллер, 2016] WEB-DL 720p, Mvo

salma3

1770 | 219

2.68 ГБ

В этой теме нет новых непрочитанных сообщений. Кровный отец / Blood Father [боевик, триллер, 2016] WEB-DLRip, Mvo

salma3

7108 | 671

1.37 ГБ

В этой теме нет новых непрочитанных сообщений. Кровный отец / Blood Father [Боевик, триллер, 2016] BDRemux 1080p, mvo

marya111

24 | 5

16.04 ГБ

В этой теме нет новых непрочитанных сообщений. Кровный отец / Blood Father [боевик, триллер, 2016] BDRip 1080p, Mvo

salma3

53 | 41

9.46 ГБ

В этой теме нет новых непрочитанных сообщений. Кровный отец / Blood Father [боевик, триллер, 2016] WEB-DLRip 1080p, Mvo

salma3

2685 | 272

2.84 ГБ


Начать новую тему Ответить на тему  [ 1 сообщение ] 




Для Мосгорсуда, Роскомнадзора и рекламодателей:: mosgorsud-torrent[собачка]yandex.ru