Торрент файл
скачать торрент магнет ссылка Добавлен: 15 янв 2012, 21:52
Размер: 2.18 ГБ
Сидеров: 46
Личеров: 5
Автор

СообщениеДобавлено: 15 янв 2012, 21:52 

Не в сети
Супермодератор
Аватара пользователя
Дата регистрации:
11 апр 2010, 18:10
Спасибо: 5802 / 7
Сообщения: 56779
Притворись моей женой / Just Go with It


Перевод: Профессиональный (полное дублирование), cубтитры: Русские
Формат: DVDRip-AVC, MKV, H.264, AC3
Страна: США
Режиссер: Дэннис Дуган
Жанр: мелодрама, комедия
Продолжительность: 01:51:51
Год выпуска: 2011

В ролях: Адам Сэндлер, Дженнифер Энистон, Николь Кидман, Ник Свардсон, Бруклин Декер, Бэйли Мэдисон, Дэйв Мэтьюз, Кевин Нилон, Рэйчел Дрэч, Аллен Коверт

Описание: Главный герой Дэнни встретил Дэлвин, и чтобы произвести впечатление, рассказал о своей несуществующей жене и тяготах семейной жизни. Вместо ожидаемого сочувствия, Дэлвин хочет познакомится с его женой, и Дэнни необходимо срочно придумать, как выпутаться из столь интересного положения. К счастью, у него есть знакомая коллега Кэтрин, обаятельная и с детьми, которые и сыграют на время роль его семьи.



Видео: 720x552@1024x552 (1.85:1), 25.000 fps, AVC, High@L3.1, х264, ~ 2 347 Kbps Kbps, 0.236 bit/pixel
Аудио: 48 kHz, AC3 Dolby Digital, 3/2 (L,C,R,l,r) + LFE ch, ~448 kbps

Лицензия
General
Unique ID: 231331763370376105379843074418116396780 (0xAE08E08423BFC1B9A3EEA16F13B806EC)
Complete name: E:\РЕЛИЗЫ\Все релизы 13\pritvoris_moei_zhenoi_[tfile.ru].mkv
Format: Matroska
File size: 2.18 GiB
Duration: 1h 51mn
Overall bit rate: 2 796 Kbps
Movie name: Pritvoris moej zhenoj / 2011 / Release by Vaippp / OpenSharing Team
Encoded date: UTC 2011-04-13 21:18:19
Writing application: mkvmerge v4.6.0 ('Still Crazy After All These Years') сборка от Mar 10 2011 02:50:32
Writing library: libebml v1.2.0 + libmatroska v1.1.0

Video
ID: 1
Format: AVC
Format/Info: Advanced Video Codec
Format profile: High@L3.1
Format settings, CABAC: Yes
Format settings, ReFrames: 8 frames
Codec ID: V_MPEG4/ISO/AVC
Duration: 1h 51mn
Bit rate: 2 347 Kbps
Width: 720 pixels
Height: 552 pixels
Display aspect ratio: 1.855
Frame rate: 25.000 fps
Color space: YUV
Chroma subsampling: 4:2:0
Bit depth: 8 bits
Scan type: Progressive
Bits/(Pixel*Frame): 0.236
Stream size: 1.79 GiB (82%)
Title: DVDRip by Vaippp
Writing library: x264 core 114 r1913 5fd3dce
Encoding settings: cabac=1 / ref=8 / deblock=1:-2:-2 / analyse=0x3:0x133 / me=umh / subme=9 / psy=1 / psy_rd=1.00:0.10 / mixed_ref=1 / me_range=32 / chroma_me=1 / trellis=1 / 8x8dct=1 / cqm=0 / deadzone=21,11 / fast_pskip=0 / chroma_qp_offset=-3 / threads=4 / sliced_threads=0 / nr=0 / decimate=1 / interlaced=0 / constrained_intra=0 / bframes=7 / b_pyramid=2 / b_adapt=2 / b_bias=0 / direct=3 / weightb=1 / open_gop=0 / weightp=2 / keyint=250 / keyint_min=25 / scenecut=40 / intra_refresh=0 / rc_lookahead=60 / rc=2pass / mbtree=1 / bitrate=2347 / ratetol=1.0 / qcomp=0.60 / qpmin=10 / qpmax=51 / qpstep=4 / cplxblur=20.0 / qblur=0.5 / ip_ratio=1.40 / aq=1:1.00 / zones=158197,167795,q=35
Language: English

Audio
ID: 2
Format: AC-3
Format/Info: Audio Coding 3
Mode extension: CM (complete main)
Codec ID: A_AC3
Duration: 1h 51mn
Bit rate mode: Constant
Bit rate: 448 Kbps
Channel(s): 6 channels
Channel positions: Front: L C R, Side: L R, LFE
Sampling rate: 48.0 KHz
Bit depth: 16 bits
Compression mode: Lossy
Stream size: 358 MiB (16%)
Title: DUB
Language: Russian

Text
ID: 3
Format: UTF-8
Codec ID: S_TEXT/UTF8
Codec ID/Info: UTF-8 Plain Text
Language: Russian















Поделиться:




реклама партнёра


Вернуться к началу
 Профиль Отправить личное сообщение  
 
   Похожие торренты   Автор   Торрент   Размер 
В этой теме нет новых непрочитанных сообщений. Трудный Ребенок: Трилогия / Problem Child: Trilogy (Дэннис Дуган,Брайан Левант,Грег Биман) [1990-1995, Комедия, Семейный, DVDRip]

marya111

0 | 0

4.27 ГБ

В этой теме нет новых непрочитанных сообщений. Познакомьтесь с моей женой / Женские истории. / Vi Presento Mia Moglie. (Mario Salieri. / Salieri All Sex.) [2000 г., Vignettes, Anal, Orgy, Group sex, Threesome, Gang Bang, DVDRip., Субтитры: Русские, вшитые]

ainazd

12 | 4

1.46 ГБ

В этой теме нет новых непрочитанных сообщений. Притворись моим мужем / You May Not Kiss the Bride [мелодрама, комедия, приключения, 2012] BDRemux 1080p, Mvo

salma3

5 | 1

20.65 ГБ

В этой теме нет новых непрочитанных сообщений. Watching My Hotwife / Наблюдая за моей Горячей Женой (Paul Woodcrest / New Sensations) (Alison Tyler, Anikka Albrite, Brooklyn Chase, Chad White, Dahlia Sky...) [2015 г., All Sex, Couples, Cuckolds, Wives, WEB-DL 320p]

friizze

1 | 5

1.37 ГБ

В этой теме нет новых непрочитанных сообщений. Твои руки на моей заднице / Laisse tes mains sur mes hanches [мелодрама, комедия, 2003] DVDRip, Dvo

salma3

47 | 3

1.46 ГБ

В этой теме нет новых непрочитанных сообщений. Друг моей подруги / L'ami de mon amie [Драма, мелодрама, комедия, 1987] BDRip 1080p, Mvo+Avo

salma3

9 | 2

10.11 ГБ

В этой теме нет новых непрочитанных сообщений. Свидание моей мечты / Employee of the Month [мелодрама, комедия, 2006] BDRemux 1080p, Dub

salma3

54 | 31

16.85 ГБ


Начать новую тему Ответить на тему  [ 1 сообщение ] 




Для Мосгорсуда, Роскомнадзора и рекламодателей:: mosgorsud-torrent[собачка]yandex.ru