Торрент файл
скачать торрент магнет ссылка Добавлен: 15 янв 2012, 21:51
Размер: 700.26 МБ
Сидеров: 48
Личеров: 4
Автор

СообщениеДобавлено: 15 янв 2012, 21:51 

Не в сети
Супермодератор
Аватара пользователя
Дата регистрации:
11 апр 2010, 18:10
Спасибо: 5801 / 7
Сообщения: 56779
Притворись моей женой / Just Go with It

«Иногда, чтобы влюбиться, нужно... жениться»

Перевод: Профессиональный (полное дублирование) [Лицензия]
Субтитры:отсутствуют
Формат: DVDRip, MKV, H.264, AC3

Страна: США
Режиссер: Дэннис Дуган
Жанр: мелодрама, комедия

Продолжительность: 01:51:51
Год выпуска: 2011

В ролях: Адам Сэндлер, Дженнифер Энистон, Николь Кидман, Ник Свардсон, Бруклин Декер, Бэйли Мэдисон, Дэйв Мэтьюз, Кевин Нилон, Рэйчел Дрэч, Аллен Коверт

Описание: Главный герой Дэнни встретил Дэлвин, и чтобы произвести впечатление, рассказал о своей несуществующей жене и тяготах семейной жизни. Вместо ожидаемого сочувствия, Дэлвин хочет познакомится с его женой, и Дэнни необходимо срочно придумать, как выпутаться из столь интересного положения. К счастью, у него есть знакомая коллега Кэтрин, обаятельная и с детьми, которые и сыграют на время роль его семьи

[/field]





Видео: 688x368 (1.87:1), 25 fps, MPEG-4 AVC (x264) High@L5.1 ~744 Kbps, 0.12 bit/pixel
Аудио: 48 kHz, AC3, 6 ch, ~128 kbps avg

Рип от:TswetkOFF
Релиз-Группа:



General
Unique ID: 207623798401825732775355800834818071800 (0x9C32E398D7D089BC81211F4E745A5CF
Complete name: D:\Films\pritvoris_moej_zhenoj_[tfile.ru].mkv
Format: Matroska
File size: 700 MiB
Duration: 1h 51mn
Overall bit rate: 875 Kbps
Encoded date: UTC 2011-04-14 17:38:10
Writing application: mkvmerge v2.4.0 ('Fumbling Towards Ecstasy') built on Oct 11 2008 20:13:15
Writing library: libebml v0.7.7 + libmatroska v0.8.1

Video
ID: 1
Format: AVC
Format/Info: Advanced Video Codec
Format profile: High@L5.1
Format settings, CABAC: Yes
Format settings, ReFrames: 3 frames
Codec ID: V_MPEG4/ISO/AVC
Duration: 1h 51mn
Bit rate: 744 Kbps
Width: 688 pixels
Height: 368 pixels
Display aspect ratio: 1.870
Frame rate: 25.000 fps
Color space: YUV
Chroma subsampling: 4:2:0
Bit depth: 8 bits
Scan type: Progressive
Bits/(Pixel*Frame): 0.118
Stream size: 584 MiB (83%)
Writing library: x264 core 65 r999kMod cc51047
Encoding settings: cabac=1 / ref=3 / deblock=1:-2:-1 / analyse=0x3:0x133 / me=umh / subme=7 / psy_rd=1.0:0.0 / mixed_ref=1 / me_range=16 / chroma_me=1 / trellis=2 / 8x8dct=1 / cqm=0 / deadzone=21,11 / chroma_qp_offset=-2 / threads=2 / thread_queue=2 / nr=0 / decimate=0 / mbaff=0 / bframes=3 / b_pyramid=0 / b_adapt=1 / b_bias=0 / direct=3 / wpredb=1 / keyint=250 / keyint_min=25 / scenecut=40(pre) / rc=2pass / bitrate=744 / ratetol=1.0 / qcomp=0.60 / qpmin=10 / qpmax=51 / qpstep=4 / cplxblur=20.0 / qblur=0.5 / ip_ratio=1.40 / pb_ratio=1.30 / aq=1:1.00

Audio
ID: 2
Format: AC-3
Format/Info: Audio Coding 3
Mode extension: CM (complete main)
Codec ID: A_AC3
Duration: 1h 51mn
Bit rate mode: Constant
Bit rate: 128 Kbps
Channel(s): 6 channels
Channel positions: Front: L C R, Side: L R, LFE
Sampling rate: 48.0 KHz
Bit depth: 16 bits
Compression mode: Lossy
Stream size: 102 MiB (15%)








Поделиться:




реклама партнёра


Вернуться к началу
 Профиль Отправить личное сообщение  
 
   Похожие торренты   Автор   Торрент   Размер 
В этой теме нет новых непрочитанных сообщений. Трудный Ребенок: Трилогия / Problem Child: Trilogy (Дэннис Дуган,Брайан Левант,Грег Биман) [1990-1995, Комедия, Семейный, DVDRip]

marya111

0 | 0

4.27 ГБ

В этой теме нет новых непрочитанных сообщений. Познакомьтесь с моей женой / Женские истории. / Vi Presento Mia Moglie. (Mario Salieri. / Salieri All Sex.) [2000 г., Vignettes, Anal, Orgy, Group sex, Threesome, Gang Bang, DVDRip., Субтитры: Русские, вшитые]

ainazd

12 | 4

1.46 ГБ

В этой теме нет новых непрочитанных сообщений. Притворись моим мужем / You May Not Kiss the Bride [мелодрама, комедия, приключения, 2012] BDRemux 1080p, Mvo

salma3

5 | 1

20.65 ГБ

В этой теме нет новых непрочитанных сообщений. Watching My Hotwife / Наблюдая за моей Горячей Женой (Paul Woodcrest / New Sensations) (Alison Tyler, Anikka Albrite, Brooklyn Chase, Chad White, Dahlia Sky...) [2015 г., All Sex, Couples, Cuckolds, Wives, WEB-DL 320p]

friizze

1 | 5

1.37 ГБ

В этой теме нет новых непрочитанных сообщений. Твои руки на моей заднице / Laisse tes mains sur mes hanches [мелодрама, комедия, 2003] DVDRip, Dvo

salma3

47 | 3

1.46 ГБ

В этой теме нет новых непрочитанных сообщений. Друг моей подруги / L'ami de mon amie [Драма, мелодрама, комедия, 1987] BDRip 1080p, Mvo+Avo

salma3

9 | 2

10.11 ГБ

В этой теме нет новых непрочитанных сообщений. Свидание моей мечты / Employee of the Month [мелодрама, комедия, 2006] BDRemux 1080p, Dub

salma3

54 | 31

16.85 ГБ


Начать новую тему Ответить на тему  [ 1 сообщение ] 




Для Мосгорсуда, Роскомнадзора и рекламодателей:: mosgorsud-torrent[собачка]yandex.ru