Торрент файл
скачать торрент магнет ссылка Добавлен: 15 янв 2012, 21:48
Размер: 1.47 ГБ
Сидеров: 12
Личеров: 4
Автор

СообщениеДобавлено: 15 янв 2012, 21:48 

Не в сети
Супермодератор
Аватара пользователя
Дата регистрации:
11 апр 2010, 18:10
Спасибо: 5801 / 7
Сообщения: 56779
Дилемма / The Dilemma


Перевод: Профессиональный (полное дублирование), cубтитры: Английские
Формат: HDRip-AVC, MKV, H.264, AC3
Страна: США
Режиссер: Рон Ховард
Жанр: комедия, драма
Продолжительность: 01:51:31
Год выпуска: 2011

В ролях: Винс Вон, Кевин Джеймс, Дженнифер Коннелли, Вайнона Райдер, Ченнинг Татум, Куин Латифа, Эми Мортон, Челси Росс, Эдуардо Н. Мартинез, Рэнс Ховард

Описание: Главные герои истории — два друга и деловых компаньона Ронни и Исаак. Однажды Ронни застукал жену друга с другим мужчиной и теперь мучается дилеммой: либо смолчать, либо рассказать обо всем обманутому товарищу.



Видео: 1280 x 544 (2.353), 23.976 fps, AVC, High@L4.1, х264 ~1 463 kbps avg, 0.088 bit/pixel
Аудио: 48 kHz, AC3 Dolby Digital, 3/2 (L,C,R,l,r) + LFE ch, ~384 kbps

Лицензия
General
Unique ID: 209169414899719099269117734604215461367 (0x9D5C905FB7AC09D0803F111310FCA5F7)
Complete name: E:\РЕЛИЗЫ\Все релизы 13\the_dilemma_[tfile.ru].mkv
Format: Matroska
File size: 1.47 GiB
Duration: 1h 51mn
Overall bit rate: 1 885 Kbps
Movie name: Дилемма / The Dilemma (2011) BDRip 720p от FireBit
Encoded date: UTC 2011-04-25 17:04:25
Writing application: mkvmerge v2.3.0 ('Freak U') built on Sep8 2008 18:32:16
Writing library: libebml v0.7.7 + libmatroska v0.8.1

Video
ID: 1
Format: AVC
Format/Info: Advanced Video Codec
Format profile: High@L4.1
Format settings, CABAC: Yes
Format settings, ReFrames: 3 frames
Codec ID: V_MPEG4/ISO/AVC
Duration: 1h 51mn
Bit rate: 1 463 Kbps
Width: 1 280 pixels
Height: 544 pixels
Display aspect ratio: 2.35:1
Frame rate: 23.976 fps
Color space: YUV
Chroma subsampling: 4:2:0
Bit depth: 8 bits
Scan type: Progressive
Bits/(Pixel*Frame): 0.088
Stream size: 1.14 GiB (78%)
Language: English

Audio
ID: 2
Format: AC-3
Format/Info: Audio Coding 3
Mode extension: CM (complete main)
Codec ID: A_AC3
Duration: 1h 51mn
Bit rate mode: Constant
Bit rate: 384 Kbps
Channel(s): 6 channels
Channel positions: Front: L C R, Side: L R, LFE
Sampling rate: 48.0 KHz
Bit depth: 16 bits
Compression mode: Lossy
Delay relative to video: 5ms
Stream size: 306 MiB (20%)
Language: Russian

Text #1
ID: 3
Format: UTF-8
Codec ID: S_TEXT/UTF8
Codec ID/Info: UTF-8 Plain Text
Language: English

Text #2
ID: 4
Format: UTF-8
Codec ID: S_TEXT/UTF8
Codec ID/Info: UTF-8 Plain Text
Language: English

Text #3
ID: 5
Format: UTF-8
Codec ID: S_TEXT/UTF8
Codec ID/Info: UTF-8 Plain Text
Language: English

















Поделиться:




реклама партнёра


Вернуться к началу
 Профиль Отправить личное сообщение  
 
   Похожие торренты   Автор   Торрент   Размер 
В этой теме нет новых непрочитанных сообщений. Дилемма / Dilemma [боевик, драма, 1997] DVDRip, Avo

salma3

0 | 2

1.36 ГБ

В этой теме нет новых непрочитанных сообщений. Зверополис / Zootopia (Байрон Ховард, Рич Мур, Джаред Буш) [2016, мультфильм, боевик, комедия, криминал, приключения, семейный, HDRip | Лицензия] Dub

marya111

2178 | 80

1.45 ГБ

В этой теме нет новых непрочитанных сообщений. В сердце моря / In the Heart of the Sea (Рон Ховард) [2015, боевик, триллер, драма, приключения, биография, история, HDRip] Dub

Nickolas3435

2703 | 56

2.19 ГБ

В этой теме нет новых непрочитанных сообщений. В сердце моря / In the Heart of the Sea (Рон Ховард) [2015, боевик, триллер, драма, приключения, биография, история, HDRip] Dub

Nickolas3435

18969 | 903

1.46 ГБ

В этой теме нет новых непрочитанных сообщений. I, The Writer - The Prisoners Dilemma [2013, Melodic Metalcore, MP3]

PriZraK

0 | 1

85 МБ

В этой теме нет новых непрочитанных сообщений. Ticket To The Moon – Dilemma On Earth [2012, Progressive Rock, MP3]

PriZraK

0 | 1

138.26 МБ

В этой теме нет новых непрочитанных сообщений. Zero Escape: Zero Time Dilemma [Psychological thriller, Puzzle, 2016] [RePack]

Sykre

4 | 1

1.01 ГБ


Начать новую тему Ответить на тему  [ 1 сообщение ] 




Для Мосгорсуда, Роскомнадзора и рекламодателей:: mosgorsud-torrent[собачка]yandex.ru