Торрент файл
скачать торрент магнет ссылка Добавлен: 15 янв 2012, 21:48
Размер: 684.84 МБ
Сидеров: 4
Личеров: 4
Автор

СообщениеДобавлено: 15 янв 2012, 21:48 

Не в сети
Супермодератор
Аватара пользователя
Дата регистрации:
11 апр 2010, 18:10
Спасибо: 5801 / 7
Сообщения: 56779
Дилемма / The Dilemma

Перевод: Профессиональный (полное дублирование), cубтитры: отсутствуют
Формат:LowHDRip-AVC, MKV, H.264, MP3
Страна: США
Режиссер: Рон Ховард
Жанр: комедия, драма
Продолжительность: 01:51:32
Год выпуска: 2011

В ролях: Винс Вон, Кевин Джеймс, Дженнифер Коннелли, Вайнона Райдер, Ченнинг Татум, Куин Латифа, Эми Мортон, Челси Росс, Эдуардо Н. Мартинез, Рэнс Ховард

Описание: Главные герои истории — два друга и деловых компаньона Ронни и Исаак. Однажды Ронни застукал жену друга с другим мужчиной и теперь мучается дилеммой: либо смолчать, либо рассказать обо всем обманутому товарищу

Рейтинг:

Видео: 640x272 (2.35:1), 23.976 fps, AVC, High@L5.1, x264, ~728 kbps avg, 0.174 bit/pixel
Аудио: 48 kHz, MPEG Layer 3, 2 ch, ~128 kbps avg

Общее
Уникальный идентификатор: 271220689229117800100596871714107321520 (0xCC0B3466B81C046A69413D42D3E86CB0)
Полное имя: C:\Users\Радик\Downloads\The_dilemma_[tfile.ru].mkv
Формат: Matroska
Размер файла: 685 Мбайт
Продолжительность: 1 ч. 51 м.
Общий поток: 858 Кбит/сек
Программа кодирования: Lavf52.52.0
Библиотека кодирования: Lavf52.52.0

Видео
Идентификатор: 1
Формат: AVC
Формат/Информация: Advanced Video Codec
Профиль формата: High@L5.1
Параметр CABAC формата: Да
Параметр ReFrames формата: 3 кадра
Идентификатор кодека: V_MPEG4/ISO/AVC
Продолжительность: 1 ч. 51 м.
Битрейт: 728 Кбит/сек
Ширина: 640 пикс.
Высота: 272 пикс.
Соотношение сторон: 2,35:1
Режим частоты кадров: Постоянный
Частота кадров: 23,976 кадр/сек
Цветовое пространство: YUV
Подвыборка цветности: 4:2:0
Битовая глубина: 8 бит
Тип развёртки: Прогрессивная
Бит/(Пиксели*Кадры): 0.174
Размер потока: 569 Мбайт (83%)
Библиотека кодирования: x264 core 86 r1442M 781d300
Настройки программы: cabac=1 / ref=3 / deblock=1:0:0 / analyse=0x3:0x133 / me=dia / subme=5 / psy=1 / psy_rd=0.00:0.00 / mixed_ref=1 / me_range=16 / chroma_me=1 / trellis=0 / 8x8dct=1 / cqm=0 / deadzone=21,11 / fast_pskip=1 / chroma_qp_offset=0 / threads=2 / sliced_threads=0 / nr=0 / decimate=1 / interlaced=0 / constrained_intra=0 / bframes=3 / b_pyramid=1 / b_adapt=0 / b_bias=0 / direct=3 / wpredb=1 / wpredp=0 / keyint=230 / keyint_min=23 / scenecut=40 / intra_refresh=0 / rc_lookahead=40 / rc=abr / mbtree=1 / bitrate=728 / ratetol=0.2 / qcomp=0.60 / qpmin=10 / qpmax=51 / qpstep=4 / ip_ratio=1.41 / aq=1:1.00 / pulldown=0
Язык: Russian

Аудио
Идентификатор: 2
Формат: MPEG Audio
Версия формата: Version 1
Профиль формата: Layer 3
Режим: Joint stereo
Идентификатор кодека: A_MPEG/L3
Идентификатор кодека/Подсказка: MP3
Продолжительность: 1 ч. 51 м.
Вид битрейта: Постоянный
Битрейт: 128 Кбит/сек
Каналы: 2 канала
Частота: 48,0 КГц
Метод сжатия: С потерями
Размер потока: 102 Мбайт (15%)
Библиотека кодирования: LAME3.98.2
Язык: Russian




Поделиться:




реклама партнёра


Вернуться к началу
 Профиль Отправить личное сообщение  
 
   Похожие торренты   Автор   Торрент   Размер 
В этой теме нет новых непрочитанных сообщений. Дилемма / Dilemma [боевик, драма, 1997] DVDRip, Avo

salma3

0 | 2

1.36 ГБ

В этой теме нет новых непрочитанных сообщений. I, The Writer - The Prisoners Dilemma [2013, Melodic Metalcore, MP3]

PriZraK

0 | 1

85 МБ

В этой теме нет новых непрочитанных сообщений. Ticket To The Moon – Dilemma On Earth [2012, Progressive Rock, MP3]

PriZraK

0 | 1

138.26 МБ

В этой теме нет новых непрочитанных сообщений. Zero Escape: Zero Time Dilemma [Psychological thriller, Puzzle, 2016] [RePack]

Sykre

4 | 1

1.01 ГБ

В этой теме нет новых непрочитанных сообщений. Старость – не радость / Getting On [S01] (Ховард Дойч, Бекки Мартин, Мигель Артета) [2013, комедия, HDTVRip | Amedia]

Dracon

103 | 17

2.29 ГБ

В этой теме нет новых непрочитанных сообщений. Старость – не радость / Getting On [S02] (Ховард Дойч, Бекки Мартин, Мигель Артета) [2014, комедия, HDTVRip | Amedia]

Dracon

76 | 13

2.49 ГБ

В этой теме нет новых непрочитанных сообщений. Зверополис / Zootopia (Байрон Ховард, Рич Мур, Джаред Буш) [2016, мультфильм, боевик, комедия, криминал, приключения, семейный, HDRip | Лицензия] Dub

marya111

2178 | 80

1.45 ГБ


Начать новую тему Ответить на тему  [ 1 сообщение ] 




Для Мосгорсуда, Роскомнадзора и рекламодателей:: mosgorsud-torrent[собачка]yandex.ru