Торрент файл
скачать торрент магнет ссылка Добавлен: 15 янв 2012, 21:46
Размер: 2.05 ГБ
Сидеров: 28
Личеров: 4
Автор

СообщениеДобавлено: 15 янв 2012, 21:46 

Не в сети
Супермодератор
Аватара пользователя
Дата регистрации:
11 апр 2010, 18:10
Спасибо: 5799 / 7
Сообщения: 56779
Свет вокруг / Everything Is Illuminated

Перевод: Профессиональный (многоголосый, закадровый), cубтитры: руские, английские
Формат: DVDRip-AVC, MKV, x264, AC3
Страна: США
Режиссер: Лив Шрайбер
Жанр: комедия, драма
Продолжительность: 01:41:21
Год выпуска: 2005
В ролях: Евгений Гудзь, Элайджа Вуд, Джонатан Сафран Фоер, Яна Храбетова, Стивен Самудовский, Любомир Дезера, Александр Хорошко, Джил Казимиров, Сюзанна Ходкова,Микки
Описание: Молодой американец еврейского происхождения пытается найти женщину, которая спасла его дедушку во времена Второй мировой войны в украинской деревне. С помощью местных, которые очень слабо разговаривают на английском, сделать это будет не так уж и просто…

[/field]

Видео: 720x576 (16:9), 25 fps, AVC (x264) ,High@L3.0, ~2124 kbps avg, 0.205 bit/pixel
Аудио#1: 48 kHz, AC-3, 6 ch, ~384 kbps avg [Профессиональный (многоголосый, закадровый)]
Аудио#2: 48 kHz, AC-3, 6 ch, ~384 kbps avg [Оригинал]

Общее
Полное имя: I_Vse_Osvetilos.mkv
Формат: Matroska
Размер файла: 2,05 Гбайт
Продолжительность: 1 ч. 41 м.
Общий поток: 2893 Кбит/сек
Дата кодирования: UTC 2010-04-29 19:35:51
Программа кодирования: mkvmerge v3.2.0 ('Beginnings') built on Feb 12 2010 16:46:17
Библиотека кодирования: libebml v0.7.9 + libmatroska v0.8.1

Видео
Идентификатор: 1
Формат: AVC
Формат/Информация: Advanced Video Codec
Профиль формата: High@L3.0
Параметр CABAC формата: Да
Параметр ReFrames формата: 3 кадра
Идентификатор кодека: V_MPEG4/ISO/AVC
Продолжительность: 1 ч. 41 м.
Битрейт: 2124 Кбит/сек
Ширина: 720 пикс.
Высота: 576 пикс.
Соотношение сторон: 16:9
Частота кадров: 25,000 кадр/сек
Стандарт вещания: PAL
Цветовое пространство: YUV
Подвыборка цветности: 4:2:0
Битовая глубина: 8 бит
Тип развёртки: Прогрессивная
Бит/(Пиксели*Кадры): 0.205
Размер потока: 1,46 Гбайт (71%)
Библиотека кодирования: x264 core 80 r1376M 3feaec2
Настройки программы: cabac=1 / ref=3 / deblock=1:0:0 / analyse=0x3:0x113 / me=hex / subme=7 / psy=1 / psy_rd=1.0:0.0 / mixed_ref=1 / me_range=16 / chroma_me=1 / trellis=0 / 8x8dct=1 / cqm=0 / deadzone=21,11 / fast_pskip=1 / chroma_qp_offset=-2 / threads=3 / sliced_threads=0 / nr=0 / decimate=1 / mbaff=0 / constrained_intra=0 / bframes=3 / b_pyramid=0 / b_adapt=1 / b_bias=0 / direct=1 / wpredb=1 / wpredp=2 / keyint=250 / keyint_min=25 / scenecut=40 / rc_lookahead=40 / rc=2pass / mbtree=1 / bitrate=2124 / ratetol=1.0 / qcomp=0.60 / qpmin=10 / qpmax=51 / qpstep=4 / cplxblur=20.0 / qblur=0.5 / ip_ratio=1.40 / aq=1:1.00

Аудио #1
Идентификатор: 2
Формат: AC-3
Формат/Информация: Audio Coding 3
Расширение режима: CM (complete main)
Идентификатор кодека: A_AC3
Продолжительность: 1 ч. 41 м.
Вид битрейта: Постоянный
Битрейт: 384 Кбит/сек
Каналы: 6 каналов
Расположение каналов: Front: L C R, Side: L R, LFE
Частота: 48,0 КГц
Битовая глубина: 16 бит
Метод сжатия: С потерями
Задержка видео: 12 с.
Размер потока: 278 Мбайт (13%)
Заголовок: Rus MVO
Язык: Russian

Аудио #2
Идентификатор: 3
Формат: AC-3
Формат/Информация: Audio Coding 3
Расширение режима: CM (complete main)
Идентификатор кодека: A_AC3
Продолжительность: 1 ч. 41 м.
Вид битрейта: Постоянный
Битрейт: 384 Кбит/сек
Каналы: 6 каналов
Расположение каналов: Front: L C R, Side: L R, LFE
Частота: 48,0 КГц
Битовая глубина: 16 бит
Метод сжатия: С потерями
Задержка видео: 8 мс.
Размер потока: 278 Мбайт (13%)
Заголовок: Original
Язык: English

Текст #1
Идентификатор: 4
Формат: UTF-8
Идентификатор кодека: S_TEXT/UTF8
Идентификатор кодека/Информация: UTF-8 Plain Text
Заголовок: Rus subs
Язык: Russian

Текст #2
Идентификатор: 5
Формат: UTF-8
Идентификатор кодека: S_TEXT/UTF8
Идентификатор кодека/Информация: UTF-8 Plain Text
Заголовок: Eng subs
Язык: English







Поделиться:




реклама партнёра


Вернуться к началу
 Профиль Отправить личное сообщение  
 
   Похожие торренты   Автор   Торрент   Размер 
В этой теме нет новых непрочитанных сообщений. Blackstar Halo - Illuminated [2010, Modern,Melodic Metal, MP3]

PriZraK

0 | 2

90.7 МБ

В этой теме нет новых непрочитанных сообщений. Новый свет / Nuovomondo [драма, мелодрама, история, 2006] DVDRip, Mvo

salma3

24 | 3

1.37 ГБ

В этой теме нет новых непрочитанных сообщений. Свет и тень маяка [1-46 из 250] [Драма, криминал, 2015] HDTVRip

Dracon

В этой теме нет новых непрочитанных сообщений. Умирающий свет / Dying of the Light [триллер, драма, 2014] WEB-DLRip, Avo

salma3

1688 | 32

1.45 ГБ

В этой теме нет новых непрочитанных сообщений. Умирающий свет / Dying of the Light [триллер, драма, 2014] WEB-DL 720p, avo

Dracon

2 | 2

3.16 ГБ

В этой теме нет новых непрочитанных сообщений. Черный Свет / Darklight [фантастика, боевик, фэнтези, 2004] DVDRip, Mvo [лицензия]

salma3

106 | 8

1.47 ГБ

В этой теме нет новых непрочитанных сообщений. Умирающий свет / Dying of the Light [триллер, драма, 2014] WEB-DL 720p [Есарев]

Dracon

1338 | 41

3.16 ГБ


Начать новую тему Ответить на тему  [ 1 сообщение ] 




Для Мосгорсуда, Роскомнадзора и рекламодателей:: mosgorsud-torrent[собачка]yandex.ru