Торрент файл
скачать торрент магнет ссылка Добавлен: 15 янв 2012, 21:45
Размер: 2.05 ГБ
Сидеров: 21
Личеров: 6
Автор

СообщениеДобавлено: 15 янв 2012, 21:45 

Не в сети
Супермодератор
Аватара пользователя
Дата регистрации:
11 апр 2010, 18:10
Спасибо: 5803 / 7
Сообщения: 56779
Убить Боно / Killing Bono


«Они хотели переплюнуть U2»

Перевод: Профессиональный (многоголосый, закадровый), cубтитры: отсутствуют
Формат: DVDRip-AVC, MKV, H.264, AC3
Страна: Великобритания
Режиссер: Ник Хэмм
Жанр: комедия
Продолжительность: 01:48:56
Год выпуска: 2011

В ролях: Бен Барнс, Роберт Шиэн, Кристен Риттер, Пит Постлетуэйт, Джастин Уоддэлл, Питер Серафинович, Ральф Браун, Люк Тредэвэй, Мартин МакКанн, Хью О’Конор

Описание: Два неудачливых брата-ирландца Нил и Айвен МакКормики в конце 70-х создали в Дублине группу. К несчастью для парней, их одноклассники сделали то же самое — создали группу и назвали ее U2. Как вы понимаете, шансов у братьев не было



Видео: 1024 x 432 (2.370), 25.000 fps, AVC, х264, High@L4.1, ~2 059 kbps, 0.186 bit/pixel
Аудио: #1: русский 48 kHz, AC3 Dolby Digital, 3/2 (L,C,R,l,r) + LFE ch, ~320 kbps [Профессиональный (многоголосый, закадровый)]
Аудио: #2: английский 48 kHz, AC3 Dolby Digital, 3/2 (L,C,R,l,r) + LFE ch, ~320 kbps [оригинал]

Лицензия!
General
Unique ID: 188866659966221867669917466244119657461 (0x8E1665458D67CB2C91EA7FDBBB5DFBF5)
Complete name: E:\РЕЛИЗЫ\Все релизы 14\ubit_bono_[tfile.ru].mkv
Format: Matroska
File size: 2.05 GiB
Duration: 1h 48mn
Overall bit rate: 2 700 Kbps
Encoded date: UTC 2011-05-07 07:39:39
Writing application: mkvmerge v4.0.0 ('The Stars were mine') сборка от Jun6 2010 16:18:42
Writing library: libebml v1.0.0 + libmatroska v1.0.0

Video
ID: 1
Format: AVC
Format/Info: Advanced Video Codec
Format profile: High@L4.1
Format settings, CABAC: Yes
Format settings, ReFrames: 8 frames
Codec ID: V_MPEG4/ISO/AVC
Duration: 1h 48mn
Bit rate: 2 059 Kbps
Width: 1 024 pixels
Height: 432 pixels
Display aspect ratio: 2.35:1
Frame rate: 25.000 fps
Color space: YUV
Chroma subsampling: 4:2:0
Bit depth: 8 bits
Scan type: Progressive
Bits/(Pixel*Frame): 0.186
Stream size: 1.53 GiB (74%)
Writing library: x264 core 113 r1884 7313bb5
Encoding settings: cabac=1 / ref=8 / deblock=1:-2:-1 / analyse=0x3:0x113 / me=umh / subme=9 / psy=1 / psy_rd=1.10:0.20 / mixed_ref=1 / me_range=32 / chroma_me=1 / trellis=2 / 8x8dct=1 / cqm=0 / deadzone=21,11 / fast_pskip=0 / chroma_qp_offset=-3 / threads=6 / sliced_threads=0 / nr=0 / decimate=1 / interlaced=0 / constrained_intra=0 / bframes=8 / b_pyramid=2 / b_adapt=2 / b_bias=0 / direct=3 / weightb=1 / open_gop=0 / weightp=2 / keyint=250 / keyint_min=25 / scenecut=40 / intra_refresh=0 / rc_lookahead=60 / rc=2pass / mbtree=1 / bitrate=2059 / ratetol=1.0 / qcomp=0.60 / qpmin=0 / qpmax=69 / qpstep=4 / cplxblur=20.0 / qblur=0.5 / ip_ratio=1.40 / aq=1:1.00

Audio #1
ID: 2
Format: AC-3
Format/Info: Audio Coding 3
Mode extension: CM (complete main)
Codec ID: A_AC3
Duration: 1h 48mn
Bit rate mode: Constant
Bit rate: 320 Kbps
Channel(s): 6 channels
Channel positions: Front: L C R, Side: L R, LFE
Sampling rate: 48.0 KHz
Bit depth: 16 bits
Compression mode: Lossy
Stream size: 249 MiB (12%)
Language: Russian

Audio #2
ID: 3
Format: AC-3
Format/Info: Audio Coding 3
Mode extension: CM (complete main)
Codec ID: A_AC3
Duration: 1h 48mn
Bit rate mode: Constant
Bit rate: 320 Kbps
Channel(s): 6 channels
Channel positions: Front: L C R, Side: L R, LFE
Sampling rate: 48.0 KHz
Bit depth: 16 bits
Compression mode: Lossy
Stream size: 249 MiB (12%)
Language: English















Поделиться:




реклама партнёра


Вернуться к началу
 Профиль Отправить личное сообщение  
 
   Похожие торренты   Автор   Торрент   Размер 
В этой теме нет новых непрочитанных сообщений. Как убить женушку / Tout doit disparaître [Комедия, 1997] DVDRip, Mvo

salma3

46 | 5

1.37 ГБ

В этой теме нет новых непрочитанных сообщений. Девчонка, которую убить мало / Holka na zabití [криминал, комедия, детектив, 1975] DVDRip, Avo

salma3

26 | 3

1.46 ГБ

В этой теме нет новых непрочитанных сообщений. Кто убивает великих европейских поваров? / Who Is Killing the Great Chefs of Europe? [комедия, детектив, криминал, 1978] DVDRip, Avo

salma3

9 | 3

1.52 ГБ

В этой теме нет новых непрочитанных сообщений. Killing Floor - Killing Floor (1969) [2007, Blues Rock, MP3]

PriZraK

0 | 1

117.79 МБ

В этой теме нет новых непрочитанных сообщений. Как убить женушку / Tout Doit Disparaitre [комедия, 1997] DVD5, Mvo

salma3

0 | 4

3.85 ГБ

В этой теме нет новых непрочитанных сообщений. Bayside - Killing Time [2011, Punk, Alt. Rock, MP3]

PriZraK

0 | 1

56.24 МБ

В этой теме нет новых непрочитанных сообщений. Riseoffate – Killing Loneliness [EP] [2011, Metalcore, Post-Hardcore, MP3]

PriZraK

0 | 1

39.08 МБ


Начать новую тему Ответить на тему  [ 1 сообщение ] 




Для Мосгорсуда, Роскомнадзора и рекламодателей:: mosgorsud-torrent[собачка]yandex.ru