Торрент файл
скачать торрент магнет ссылка Добавлен: 15 янв 2012, 21:36
Размер: 2.09 ГБ
Сидеров: 14
Личеров: 7
Автор

СообщениеДобавлено: 15 янв 2012, 21:36 

Не в сети
Супермодератор
Аватара пользователя
Дата регистрации:
11 апр 2010, 18:10
Спасибо: 5798 / 7
Сообщения: 56779
Рыбка по имени Ванда / A Fish Called Wanda


Перевод: Профессиональный (многоголосый, закадровый), cубтитры: отсутствуют
Формат: HDRip-AVC, MKV, H.264, AC3
Страна: США, Великобритания
Режиссер: Чарльз Крайтон, Джон Клиз
Жанр: комедия, криминал
Продолжительность: 01:47:55
Год выпуска: 1988

В ролях: Джон Клиз, Джейми Ли Кёртис, Кевин Клайн, Майкл Пэлин, Мария Аиткен, Том Джорджсон, Патриция Хейс, Джеффри Палмер, Синтия Клиз, Марк Элвис

Описание: После ограбления, заполучив бриллиантов на 20 миллионов долларов, компания преступников раскалывается. Не в жаргонном смысле слова, а в прямом: Джордж Томасон попадает за решетку, а его подельники — Ванда, Кен и Отто — остаются на свободе. Ванда, действуя заодно со своим тайным любовником Отто, сама же и подставляет своего «явного» любовника Джорджа.
Но тот до приезда полиции успевает перепрятать бриллианты. И теперь единственный шанс Ванды и Отто узнать, где драгоценности, — это адвокат Арчи Лич, с которым Джордж может поделиться важной информацией. Ванда приступает к обольщению Арчи Лича…




Видео: 1072 x 576 (1.861), 23.976 fps, AVC, х264, High@L4.1, ~ 2324 Kbps Kbps, 0.157 bit/pixel
Аудио: 48 kHz, AC3 Dolby Digital, 3/2 (L,C,R,l,r) + LFE ch, ~448 kbps


Рип: jeenart
General
Unique ID: 172984867305559337986299305087839635206 (0x8223AC7031F8C87CA2259ACABEEE0706)
Complete name: F:\Мои релизы\Все релизы 8\a_fish_called_wanda_[tfile.ru].mkv
Format: Matroska
File size: 2.09 GiB
Duration: 1h 47mn
Overall bit rate: 2 774 Kbps
Encoded date: UTC 2011-06-10 05:29:42
Writing application: mkvmerge v4.6.0 ('Still Crazy After All These Years') сборка от Apr1 2011 21:01:49
Writing library: libebml v1.2.0 + libmatroska v1.1.0

Video
ID: 1
Format: AVC
Format/Info: Advanced Video Codec
Format profile: High@L4.1
Format settings, CABAC: Yes
Format settings, ReFrames: 3 frames
Codec ID: V_MPEG4/ISO/AVC
Duration: 1h 47mn
Bit rate: 2 324 Kbps
Width: 1 072 pixels
Height: 576 pixels
Display aspect ratio: 1.861
Frame rate: 23.976 fps
Color space: YUV
Chroma subsampling: 4:2:0
Bit depth: 8 bits
Scan type: Progressive
Bits/(Pixel*Frame): 0.157
Stream size: 1.71 GiB (82%)
Writing library: x264 core 115 r1937 aa21558
Encoding settings: cabac=1 / ref=3 / deblock=1:-1:-1 / analyse=0x3:0x113 / me=dia / subme=7 / psy=1 / psy_rd=1.00:0.10 / mixed_ref=1 / me_range=16 / chroma_me=1 / trellis=1 / 8x8dct=1 / cqm=0 / deadzone=21,11 / fast_pskip=1 / chroma_qp_offset=-3 / threads=6 / sliced_threads=0 / nr=0 / decimate=1 / interlaced=0 / bluray_compat=0 / constrained_intra=0 / bframes=1 / b_pyramid=0 / b_adapt=0 / b_bias=0 / direct=0 / weightb=1 / open_gop=0 / weightp=0 / keyint=250 / keyint_min=23 / scenecut=40 / intra_refresh=0 / rc_lookahead=40 / rc=2pass / mbtree=1 / bitrate=2324 / ratetol=1.0 / qcomp=0.60 / qpmin=0 / qpmax=69 / qpstep=4 / cplxblur=20.0 / qblur=0.5 / ip_ratio=1.40 / aq=1:1.00

Audio
ID: 2
Format: AC-3
Format/Info: Audio Coding 3
Mode extension: CM (complete main)
Codec ID: A_AC3
Duration: 1h 47mn
Bit rate mode: Constant
Bit rate: 448 Kbps
Channel(s): 6 channels
Channel positions: Front: L C R, Side: L R, LFE
Sampling rate: 48.0 KHz
Bit depth: 16 bits
Compression mode: Lossy
Stream size: 346 MiB (16%)
























Поделиться:




реклама партнёра


Вернуться к началу
 Профиль Отправить личное сообщение  
 
   Похожие торренты   Автор   Торрент   Размер 
В этой теме нет новых непрочитанных сообщений. Как рыбка без воды / Like a fish out of water [Триллер, Комедия, Криминал, 1999] DVDRip, Mvo

salma3

26 | 2

1.46 ГБ

В этой теме нет новых непрочитанных сообщений. Маленькая рыбка / Little Fish [Триллер, драма, мелодрама, криминал, 2005] DVDRip, Dvo

salma3

14 | 4

1.45 ГБ

В этой теме нет новых непрочитанных сообщений. Надувательство / Shooting Fish [мелодрама, комедия, криминал, 1997] DVDRip, Mvo

salma3

0 | 0

1.46 ГБ

В этой теме нет новых непрочитанных сообщений. Успеть до полуночи / Midnight Run [боевик, комедия, криминал, 1988] HDRip, Mvo

salma3

50 | 5

1.45 ГБ

В этой теме нет новых непрочитанных сообщений. Смертельное влечение / Heathers [триллер, комедия, криминал, 1988] HDRip, Mvo

salma3

87 | 6

1.45 ГБ

В этой теме нет новых непрочитанных сообщений. Замужем За Мафией / Married To The Mob [комедия, криминал, мелодрама, 1988] HDRip, Mvo

salma3

10 | 2

1.45 ГБ

В этой теме нет новых непрочитанных сообщений. Теккен 2 / Tekken: A Man Called X [боевик, 2014] HDRip, Dvo

salma3

908 | 28

1.36 ГБ


Начать новую тему Ответить на тему  [ 1 сообщение ] 




Для Мосгорсуда, Роскомнадзора и рекламодателей:: mosgorsud-torrent[собачка]yandex.ru