Торрент файл
скачать торрент магнет ссылка Добавлен: 15 янв 2012, 21:33
Размер: 2.18 ГБ
Сидеров: 3
Личеров: 4
Автор

СообщениеДобавлено: 15 янв 2012, 21:33 

Не в сети
Супермодератор
Аватара пользователя
Дата регистрации:
11 апр 2010, 18:10
Спасибо: 5941 / 7
Сообщения: 56776
[b]Больше чем секс / No Strings Attached[/b]


Перевод: Профессиональный (полное дублирование)
Субтитры: отсутствуют
Формат: HDRip-AVC, MKV, H.264, AC3

Страна:США

Режиссер: Айвен Райтман
Жанр: мелодрама, комедия
Продолжительность: 01:47:58
Год выпуска: 2011

В ролях: Натали Портман, Эштон Катчер, Кевин Клайн, Кэри Элвис, Грета Гервиг, Лэйк Белл, Оливия Тирлби, Лудакрис, Джэйк М. Джонсон, Мелинда Калинг.

Описание: Романтическая комедия о том, как легко мужчины и женщины вступают в сексуальную связь, но как трудно им достичь эмоциональной близости. Главных героев связывают только сексуальные отношения, но со временем они понимают, что на смену физиологическим инстинктам приходит нечто большее.



Видео: 1024x424 (2.40:1), 23.976 fps, AVC MPEG-4 High@L4.1 ~2445 kbps avg, 0.229 bit/pixel
Аудио: 48 kHz, AC3 Dolby Digital, 3/2 (L,C,R,l,r) + LFE ch, ~448 kbps avg



Рип с Лицензии


Format : Matroska
File size : 2.18 GiB
Duration : 1h 47mn
Overall bit rate : 2 892 Kbps
Movie name : Reliz by Electro
Writing application : mkvmerge v4.6.0 ('Still Crazy After All These Years') ñáîðêà îò Apr 1 2011 21:01:49
Writing library : libebml v1.2.0 + libmatroska v1.1.0
Video #1
ID : 1
Format : AVC
Format/Info : Advanced Video Codec
Format profile : High@L4.1
Format settings, CABAC : Yes
Format settings, ReFrames : 7 frames
Muxing mode : Container profile=Unknown@4.1
Codec ID : V_MPEG4/ISO/AVC
Duration : 1h 47mn
Bit rate : 2 445 Kbps
Width : 1 024 pixels
Height : 424 pixels
Display aspect ratio : 2.40:1
Frame rate : 23.976 fps
Resolution : 24 bits
Colorimetry : 4:2:0
Scan type : Progressive
Bits/(Pixel*Frame) : 0.229
Stream size : 1.80 GiB (82%)
Writing library : x264 core 92 r1510 33d382a
Encoding settings : cabac=1 / ref=7 / deblock=1:-2:-2 / analyse=0x3:0x113 / me=umh / subme=9 / psy=1 / psy_rd=1.00:0.00 / mixed_ref=1 / me_range=32 / chroma_me=1 / trellis=2 / 8x8dct=1 / cqm=0 / deadzone=21,11 / fast_pskip=1 / chroma_qp_offset=-2 / threads=6 / sliced_threads=0 / nr=0 / decimate=1 / interlaced=0 / constrained_intra=0 / bframes=7 / b_pyramid=2 / b_adapt=2 / b_bias=0 / direct=1 / wpredb=1 / wpredp=2 / keyint=250 / keyint_min=25 / scenecut=40 / intra_refresh=0 / rc_lookahead=40 / rc=2pass / mbtree=1 / bitrate=2445 / ratetol=1.0 / qcomp=0.60 / qpmin=10 / qpmax=51 / qpstep=4 / cplxblur=20.0 / qblur=0.5 / ip_ratio=1.40 / aq=1:1.00
Audio #2
ID : 2
Format : AC-3
Format/Info : Audio Coding 3
Codec ID : A_AC3
Duration : 1h 47mn
Bit rate mode : Constant
Bit rate : 448 Kbps
Channel(s) : 6 channels
Channel positions : Front: L C R, Surround: L R, LFE
Sampling rate : 48.0 KHz
Stream size : 346 MiB (15%)
Title : Dub
Language : Russian








Поделиться:




реклама партнёра


Вернуться к началу
 Профиль Отправить личное сообщение  
 
   Похожие торренты   Автор   Торрент   Размер 
В этой теме нет новых непрочитанных сообщений. [HookupHotshot.com] Lily Adams / No Strings Attached [2016 г., Teens, Facial, Blowjob, Deep Throat, Gagging, Sloppy, Spit, Fuck Dildo, Piss, 720p]

salma3

0 | 0

706.08 МБ

В этой теме нет новых непрочитанных сообщений. [HookupHotshot.com] Lily Adams / No Strings Attached [2016 г., Teens, Facial, Blowjob, Deep Throat, Gagging, Sloppy, Spit, Fuck Dildo, Piss, 1080p]

Dievas2

0 | 1

1.31 ГБ

В этой теме нет новых непрочитанных сообщений. Секс на две ночи / Two Night Stand (Макс Николс) [Мелодрама, Комедия, 2014] HDRip, Mvo [Лицензия]

Dracon

741 | 36

1.35 ГБ

В этой теме нет новых непрочитанных сообщений. Кубо. Легенда о самурае / Kubo and the Two Strings (мультфильм, фэнтези, приключения, семейный, 2016) HDRip от Scarabey | iTunes

marya111

209 | 46

744.23 МБ

В этой теме нет новых непрочитанных сообщений. Кубо. Легенда о самурае / Kubo and the Two Strings (мультфильм, фэнтези, приключения, семейный, 2016) HDRip от Scarabey | iTunes

marya111

2475 | 350

1.45 ГБ

В этой теме нет новых непрочитанных сообщений. The Baseballs - Strings N Stripes [2011, Rock-n-Roll, MP3]

PriZraK

0 | 1

74.88 МБ

В этой теме нет новых непрочитанных сообщений. Любовь или секс / The Bounceback [мелодрама, комедия, 2013] WEB-DLRip, Mvo

Dracon

337 | 23

1.37 ГБ


Начать новую тему Ответить на тему  [ 1 сообщение ] 




Для Мосгорсуда, Роскомнадзора и рекламодателей:: mosgorsud-torrent[собачка]yandex.ru